<?xml version="1.0" standalone="no"?>
<!DOCTYPE svg PUBLIC "-//W3C//DTD SVG 1.1//EN" "http://www.w3.org/Graphics/SVG/1.1/DTD/svg11.dtd" >
<svg xmlns="http://www.w3.org/2000/svg">
<metadata></metadata>
<defs>
<font id="comic_sans_msregular" horiz-adv-x="1250" >
<font-face units-per-em="2048" ascent="1638" descent="-410" />
<missing-glyph horiz-adv-x="612" />
<glyph horiz-adv-x="0" />
<glyph horiz-adv-x="682" />
<glyph unicode=" "  horiz-adv-x="612" />
<glyph unicode="&#x09;" horiz-adv-x="612" />
<glyph unicode="&#xa0;" horiz-adv-x="612" />
<glyph unicode="!" horiz-adv-x="487" d="M120 76q0 36 28.5 62t65.5 26q39 0 80 -52q38 -49 38 -89q0 -36 -28.5 -62.5t-64.5 -26.5q-40 0 -80 52q-39 49 -39 90zM148 647q0 145 2.5 434.5t2.5 434.5q0 89 89 89t89 -89v-1113q0 -89 -89 -89t-89 89q0 41 -2.5 122.5t-2.5 121.5z" />
<glyph unicode="&#x22;" horiz-adv-x="869" d="M116 1103q0 66 3 198t3 198q0 39 25 64t64 25t64 -25t25 -64q0 -64 -3 -191.5t-3 -191.5q0 -17 5 -49.5t5 -48.5q0 -37 -27 -61.5t-65 -24.5q-96 0 -96 171zM494 1016l9 397q2 79 13 111q21 60 82 60q39 0 64 -25.5t25 -63.5q0 -16 -3 -45t-3 -42l-9 -390q-2 -90 -89 -90 q-38 0 -64 25t-25 63z" />
<glyph unicode="#" horiz-adv-x="1726" d="M32 493q0 39 34 63q29 21 70 21h229l122 415h-267q-95 0 -95 100q0 76 148 76h264q26 116 79 316q29 92 117 92q33 0 54.5 -26.5t21.5 -58.5q0 -40 -26 -132q-44 -159 -51 -191h485q34 121 93 323q26 85 98 85q84 0 84 -78q0 -68 -83 -330h195q102 0 102 -75 q0 -105 -113 -105q-15 0 -46.5 2t-46.5 2h-146l-106 -415h204q73 0 103 -11q52 -20 52 -80q0 -92 -87 -92h-322l-90 -325q-27 -97 -112 -97q-82 0 -82 79q0 59 33 172q46 157 49 171h-500q-30 -117 -105 -344q-29 -71 -98 -71q-80 0 -80 79q0 39 23 113q35 112 70 223h-191 q-83 0 -83 99zM552 577h500l113 415h-488z" />
<glyph unicode="$" horiz-adv-x="1420" d="M100 200q0 90 83 90q47 0 90 -37q64 -55 97 -72q80 -40 218 -46v567h-8q-155 6 -268 76q-140 86 -140 239q0 137 128 258q118 112 288 163v192q0 39 26.5 65t65.5 26q86 0 86 -85v-169h4q96 0 219 -33q161 -43 161 -110q0 -88 -89 -88q-40 0 -140.5 21.5t-154.5 20.5 v-407q221 -20 346 -145q114 -116 114 -280q0 -201 -139 -333q-123 -116 -321 -153v-266q0 -39 -25.5 -64.5t-64.5 -25.5q-88 0 -88 88v255q-488 7 -488 253zM389 1014q0 -97 199 -127v359q-199 -75 -199 -232zM766 156q106 36 177 106q79 80 79 173q0 174 -256 241v-520z " />
<glyph unicode="%" horiz-adv-x="1680" d="M147 1370q0 98 102 187q98 85 197 85q145 0 231 -96q82 -93 82 -239q0 -122 -102 -197q-91 -69 -214 -69q-140 0 -221 97q-75 91 -75 232zM314 1370q0 -80 32.5 -120.5t96.5 -40.5q54 0 98 24q50 28 50 74q0 84 -37 125.5t-111 41.5q-46 0 -86 -30q-43 -33 -43 -74z M400 52q0 15 6 33q49 135 158 353q129 257 168 349l270 600q54 133 99 182q31 34 64 34q34 0 60.5 -25.5t26.5 -59.5q0 -22 -18 -50q-37 -60 -79 -159l-71 -162l-198 -425l-224 -472q-31 -77 -101 -227q-28 -53 -75 -53q-33 0 -59.5 23.5t-26.5 58.5zM940 283q0 148 84 245 q88 104 234 104q136 0 238 -76q113 -85 113 -218q0 -153 -98 -255t-251 -102q-136 0 -226 81q-94 85 -94 221zM1108 283q0 -67 43.5 -101t130.5 -34q80 0 119.5 47.5t39.5 142.5q0 58 -62 95q-54 31 -121 31q-72 0 -113 -54q-37 -50 -37 -127z" />
<glyph unicode="&#x26;" horiz-adv-x="1340" d="M75 379q0 194 147 353q85 92 310 242q-51 135 -51 263q0 100 83 210q89 117 186 117q114 0 179 -80q61 -73 61 -190q0 -203 -241 -384q77 -169 237 -425q20 55 30 114q16 102 23 127q26 82 80 82q42 0 66 -45q20 -37 20 -83q0 -203 -104 -376q167 -262 167 -311 q0 -36 -28.5 -61.5t-64.5 -25.5q-45 0 -77 51l-115 199q-201 -196 -450 -196q-187 0 -319 115q-139 120 -139 304zM253 379q0 -109 87 -178q81 -63 193 -63q202 0 349 171q-76 113 -274 502q-172 -115 -234 -177q-121 -121 -121 -255zM659 1237q0 -67 25 -153 q128 106 128 210q0 46 -15.5 68.5t-46.5 22.5q-18 0 -54.5 -63.5t-36.5 -84.5z" />
<glyph unicode="'" horiz-adv-x="795" d="M284 1446q0 100 8 135q20 79 88 79q38 0 64 -24.5t26 -62.5q0 -21 -4 -63.5t-4 -63.5q0 -30 5 -89t5 -89q0 -128 -90 -128q-62 0 -79 44q-8 23 -8 95q0 28 -5.5 83.5t-5.5 83.5z" />
<glyph unicode="(" horiz-adv-x="750" d="M114 581q0 271 109 549q122 309 320 448q40 28 63 28q36 0 63 -28.5t27 -64.5q0 -35 -62 -102q-46 -46 -91 -92q-111 -126 -174 -360q-55 -204 -55 -401q0 -508 230 -745q46 -36 93 -72q58 -46 58 -91q0 -33 -26 -57.5t-60 -24.5q-30 0 -72 23q-423 237 -423 990z" />
<glyph unicode=")" horiz-adv-x="750" d="M114 1513q0 36 26.5 64.5t62.5 28.5q23 0 64 -28q198 -139 320 -448q109 -278 109 -549q0 -753 -424 -990q-41 -23 -71 -23q-34 0 -60 24.5t-26 57.5q0 45 58 91q46 36 93 72q230 237 230 745q0 197 -55 401q-64 234 -174 360q-46 46 -91 92q-62 67 -62 102z" />
<glyph unicode="*" horiz-adv-x="1085" d="M47 1315q0 37 26 66t62 29q24 0 271 -97q-8 139 -8 192q0 39 25.5 64t63.5 25q39 0 64.5 -25t25.5 -64q0 -55 6 -169q240 36 294 36q37 0 61.5 -26.5t24.5 -64.5q0 -70 -75 -86q-70 -15 -247 -36q58 -53 126 -136q89 -110 89 -153q0 -36 -28 -62.5t-64 -26.5 q-38 0 -69 36q-61 82 -199 235q-206 -233 -279 -233q-36 0 -63.5 28t-27.5 64q0 34 32 66q64 54 186 173q-82 26 -240 87q-57 25 -57 78z" />
<glyph unicode="+" horiz-adv-x="984" d="M48 638q0 65 55 81q19 5 100 5q50 0 171 7l-1 117q0 91 9 126q10 36 31 54t54 18q38 0 64.5 -24.5t26.5 -62.5q0 -17 -3.5 -54t-3.5 -56l1 -114l75 -3q20 0 61 2.5t61 2.5q164 0 164 -94q0 -37 -24.5 -64.5t-61.5 -27.5q-12 0 -36 4t-37 4l-100 -2q-61 -2 -100 0v-235 q0 -90 -89 -90q-44 0 -66.5 22.5t-22.5 67.5l-1 115l-1 116q-121 -7 -171 -7q-155 0 -155 92z" />
<glyph unicode="," horiz-adv-x="567" d="M198 -255q0 29 62 172q54 124 83 177q26 48 69 48q36 0 61.5 -27.5t25.5 -62.5q0 -24 -142 -342q-23 -54 -72 -54q-35 0 -61 27t-26 62z" />
<glyph unicode="-" horiz-adv-x="853" d="M111 539q0 78 84 78q79 0 237 7t237 7q89 0 89 -78q0 -69 -79 -78q-136 -14 -484 -14q-84 0 -84 78z" />
<glyph unicode="." horiz-adv-x="510" d="M143 31q0 51 36 87.5t88 36.5q51 0 87.5 -36.5t36.5 -87.5q0 -52 -36.5 -88t-87.5 -36q-52 0 -88 36t-36 88z" />
<glyph unicode="/" horiz-adv-x="1048" d="M84 -3q0 16 7 34q78 215 294 619.5t295 620.5q131 358 198 355q37 -1 65 -26.5t28 -61.5q0 -23 -11 -55l-112 -272q-67 -185 -191 -427l-218 -414l-181 -401q-27 -59 -81 -59q-37 0 -65 25t-28 62z" />
<glyph unicode="0" d="M61 796q0 290 138 506q163 253 443 253q263 0 410 -224q127 -194 127 -473q0 -448 -142 -672.5t-426 -224.5q-304 0 -444 278q-106 214 -106 557zM255 812q0 -329 89 -494t267 -165q212 0 304 242q64 168 64 426q0 271 -84.5 406t-253.5 135q-186 0 -295 -189 q-91 -158 -91 -361z" />
<glyph unicode="1" horiz-adv-x="922" d="M158 85q0 101 157 101l48 -1l41 -2q0 48 -8.5 142t-8.5 141q0 127 23 386q22 255 21 387q-134 -104 -171 -104q-40 0 -69.5 30t-29.5 69q0 47 86 114q54 38 153 122q88 89 168 89q67 0 67 -77q0 -23 -6 -68.5t-6 -68.5q0 -33 3.5 -100t3.5 -100q0 -114 -24 -340t-24 -339 q0 -58 8 -141t9 -136l105 2q42 0 69.5 -27.5t27.5 -68.5q0 -42 -27.5 -69t-69.5 -27h-199l-198 1q-70 0 -98 9q-51 18 -51 76z" />
<glyph unicode="2" d="M164 192q0 233 127 375q58 65 313 240q143 98 191 153q86 96 86 225q0 64 -83 114q-73 45 -143 45q-92 0 -175 -53l-143 -112q-43 -34 -69 -34q-103 0 -103 82q0 47 38 81q117 110 203 159q121 69 249 69q162 0 289 -88q142 -99 142 -254q0 -102 -29 -188t-88 -157 q-75 -90 -254 -201q-188 -118 -247 -179q-111 -115 -109 -279l206 19q212 12 303 12q76 0 144 -26q90 -35 90 -97q0 -39 -27 -69.5t-67 -30.5q-25 0 -70.5 15.5t-69.5 15.5q-51 0 -153 -6t-154 -6q-39 0 -115.5 -10t-115.5 -10q-11 0 -32 4t-32 4q-69 0 -90 67 q-12 35 -12 120z" />
<glyph unicode="3" d="M146 257q0 40 30.5 66.5t70.5 26.5t69 -37l46 -69q36 -49 97 -73.5t146 -24.5q109 0 191 68q87 72 87 176q0 151 -111 241q-98 78 -260 95q-111 11 -111 90q0 59 87 90l239 59q69 25 104 67.5t36 103.5q2 88 -68 142q-73 56 -205 56q-68 0 -132 -33l-113 -71 q-33 -21 -53 -21q-40 0 -68.5 30.5t-28.5 69.5q0 79 153 152q133 65 219 65q215 0 341 -95q135 -102 135 -291q0 -235 -190 -310q-17 -7 -39 -14q133 -49 199 -146.5t66 -243.5q0 -197 -139 -334.5t-339 -137.5q-151 0 -271 63q-135 73 -182 205q-6 18 -6 35z" />
<glyph unicode="4" d="M48 533q0 45 55 114l86 102l492 718q67 93 170 93q113 0 113 -98v-831q17 1 41 1q184 0 184 -99q0 -72 -76 -91q-34 -9 -149 -5v-370q0 -93 -91 -93q-106 0 -106 145q0 18 2 51t2 45l-1 227l-441 11q-137 0 -190 9q-91 15 -91 71zM353 645l417 -10v648 q-267 -426 -417 -638z" />
<glyph unicode="5" d="M126 203q0 39 31 67.5t70 28.5q41 0 78 -44q53 -64 80 -82q65 -44 177 -44q173 0 287 132q109 126 109 303q0 146 -48 237q-62 115 -191 115q-107 0 -175 -29q-54 -23 -109 -79l-109 -119q-44 -45 -90 -45q-40 0 -68 28.5t-28 68.5q0 20 16 178q34 315 34 414 q0 35 -17.5 76.5t-17.5 61.5q0 61 105 61q20 0 60.5 -3.5t60.5 -3.5q58 0 174 4t174 4q27 0 82 -2t82 -2q19 0 55 7.5t54 7.5q39 0 69 -29t30 -67q0 -112 -237 -112q-31 0 -78 2t-57 2l-169 -3l-169 -5q0 -45 -37 -333q137 109 365 109q220 0 336 -172q98 -146 98 -372 q0 -270 -158 -445q-164 -182 -433 -182q-284 0 -418 210q-18 29 -18 56z" />
<glyph unicode="6" d="M111 538q0 494 401 857l94 95q69 66 104 66q40 0 70 -28.5t31 -67.5q2 -36 -102 -139l-204 -199q-81 -82 -139 -248q87 40 152 59.5t107 19.5q234 0 359 -125t125 -353q0 -239 -135 -390q-141 -157 -377 -157q-261 0 -384 191q-102 157 -102 419zM306 538q0 -179 60 -292 q76 -144 237 -144q151 0 234 108q77 100 77 265q0 137 -79 205.5t-238 68.5q-86 0 -154 -30q-26 -12 -131 -77q-6 -53 -6 -104z" />
<glyph unicode="7" d="M70 1412q0 42 28 69t70 27q126 0 378.5 -8t378.5 -8h183q106 0 106 -63q0 -47 -60 -123l-91 -106q-130 -152 -239 -368l-182 -399q-19 -44 -84 -231q-52 -148 -97 -221q-28 -47 -80 -47q-40 0 -70.5 28t-30.5 67q0 38 64 195l225 551q149 327 306 504l19 21l-502 10 l-225 6q-97 9 -97 96z" />
<glyph unicode="8" d="M122 343q-4 323 227 440q-178 108 -178 307q0 189 137 314q131 120 318 122q420 4 420 -415q0 -120 -48 -185q-39 -54 -151 -111q149 -75 209 -162q70 -102 70 -281q0 -204 -151 -320q-140 -106 -361 -106q-211 0 -341 92q-148 104 -151 305zM315 352q4 -125 115 -187 q81 -44 184 -44q176 0 246 83q56 66 56 200q0 131 -102 211q-68 55 -209 99q-159 -74 -212 -128q-83 -83 -78 -234zM366 1090q1 -140 230 -199q120 35 172 70q83 56 83 150q0 136 -61 191q-52 45 -167 45q-129 0 -197 -73q-61 -68 -60 -184z" />
<glyph unicode="9" d="M112 998q0 279 172 419q147 119 386 119q184 0 330 -150q154 -159 155 -384q1 -254 -94 -493q-102 -258 -277 -388q-73 -54 -234 -130q-179 -86 -249 -86q-41 0 -67.5 30t-26.5 70q0 59 68 89l167 57q155 63 245 145t164 233l43 86q-56 -32 -144 -59t-143 -27 q-189 0 -327 105q-168 128 -168 364zM304 1016q0 -147 103 -228q91 -71 229 -71q80 0 167 48q40 22 144 99q13 87 13 138q-1 125 -105.5 244t-212.5 119q-168 0 -252.5 -87t-85.5 -262z" />
<glyph unicode=":" horiz-adv-x="612" d="M183 1030q0 43 30 71t74 28q110 0 110 -173q0 -45 -28.5 -74t-73.5 -29t-74 29t-29 74q0 12 -4.5 36.5t-4.5 37.5zM196 336q0 42 31.5 70t74.5 28q112 0 112 -208q0 -45 -29 -74t-74 -29t-73 29q-29 29 -29 74q0 19 -6.5 55.5t-6.5 54.5z" />
<glyph unicode=";" horiz-adv-x="612" d="M81 -100q0 65 86 192q89 132 147 132q36 0 64 -27t28 -63t-70 -118q-72 -86 -77 -125q-10 -85 -88 -85q-90 0 -90 94zM197 1024q0 43 30.5 71.5t73.5 28.5q110 0 110 -174q0 -44 -29 -73t-73 -29t-73 29t-29 73q0 13 -5 37.5t-5 36.5z" />
<glyph unicode="&#x3c;" horiz-adv-x="781" d="M19 605q0 50 69 83q93 45 204 162q155 162 184.5 186.5t59.5 24.5q36 0 63.5 -27.5t27.5 -64.5q0 -34 -30 -64q-96 -102 -299 -291q56 -41 138 -127q97 -101 133 -132t36 -68t-27 -65t-63 -28q-28 0 -56 21q-40 29 -171 166q-100 105 -193 141q-76 28 -76 83z" />
<glyph unicode="=" horiz-adv-x="1045" d="M99 906q0 72 84 88q22 5 141 5l467 -1q89 0 89 -89t-89 -89l-468 1q-23 0 -68.5 -2.5t-67.5 -2.5q-39 0 -63.5 26t-24.5 64zM110 365q0 82 86 89q111 8 185 8q66 0 198 -3t198 -3q89 0 89 -89t-89 -89q-66 0 -198 3t-198 3q-30 0 -90 -4t-89 -4q-92 0 -92 89z" />
<glyph unicode="&#x3e;" horiz-adv-x="781" d="M58 279q0 40 39 70l388 296q-89 59 -220 181q-160 151 -160 209q0 36 28 63t64 27q37 0 67 -34q228 -255 413 -351q59 -30 59 -77q0 -36 -37 -71q-238 -221 -499 -388q-28 -18 -53 -18q-36 0 -62.5 28.5t-26.5 64.5z" />
<glyph unicode="?" horiz-adv-x="1073" d="M52 1251q0 79 153 157q137 70 227 70q201 0 365 -157t164 -357q0 -146 -94 -259q-56 -68 -208 -176q-153 -111 -213 -180q-35 -41 -75 -41q-41 0 -72 31.5t-31 71.5q0 69 128 170l239 180q129 111 129 203q0 116 -109 214q-105 95 -223 95q-63 0 -160 -64.5t-120 -64.5 q-41 0 -70.5 33t-29.5 74zM201 29q0 62 33 112q37 56 95 56q96 0 96 -118q0 -55 -26 -99q-32 -52 -83 -52q-44 0 -79.5 29.5t-35.5 71.5z" />
<glyph unicode="@" horiz-adv-x="1907" d="M110 712q0 384 212 642q225 276 599 276q338 0 579 -203q253 -215 253 -544q0 -225 -110 -346q-115 -125 -337 -125q-106 0 -183 31t-124 92q-54 -53 -105.5 -80t-100.5 -27q-111 0 -209.5 90.5t-98.5 198.5q0 185 145.5 338t330.5 153q42 0 70 -31t28 -75 q0 -60 -100 -89q-133 -38 -188 -87q-81 -71 -81 -209q0 -29 27 -56q31 -30 77 -28q87 4 161 162q67 138 119 138q42 0 68 -31t26 -76q0 -20 -6.5 -60t-6.5 -60q0 -65 56 -82q22 -7 95 -7q137 0 192 67q50 60 50 199q0 245 -197 400q-180 142 -430 142q-291 0 -456 -220 q-149 -196 -149 -493q0 -274 175 -462q182 -196 468 -196q81 0 183 31l175 65q44 16 57 16q41 0 71 -32.5t30 -75.5q0 -95 -213 -154q-161 -44 -301 -44q-141 0 -288.5 54.5t-252.5 145.5q-310 268 -310 652z" />
<glyph unicode="A" horiz-adv-x="1498" d="M131 78q0 48 151 365q-17 26 -17 60q0 81 98 104q114 214 288 492q237 379 295 379q79 0 108 -110l63 -336l149 -695l57 -158q29 -81 29 -108q0 -43 -31 -72t-71 -29q-92 0 -160 236q-26 90 -65 315q-102 -14 -267 -50l-266 -55q-50 -131 -171 -383q-32 -56 -87 -56 q-40 0 -71.5 29t-31.5 72zM611 652q121 31 367 75l-81 386z" />
<glyph unicode="B" horiz-adv-x="1291" d="M191 76v291q0 143 18 408q20 286 22 414v15q0 91 11 259q7 50 33 66q136 42 309 42q176 0 338 -120q187 -138 187 -341q0 -257 -200 -405q150 -64 224.5 -142t74.5 -170q0 -121 -131 -234q-91 -80 -191 -119q-225 -88 -575 -88q-43 0 -81.5 40.5t-38.5 83.5zM389 157 q262 9 427 74q70 27 134 84q61 52 61 78q0 47 -128 106q-96 45 -187 67l-106 17q-13 0 -39.5 -1.5t-40.5 -1.5q-54 0 -115 9q-6 -126 -6 -225v-207zM409 798q131 -11 150 -11h2q151 12 247 94q103 89 103 229q0 95 -105 176t-222 81q-109 0 -153 -7l-2 -175z" />
<glyph unicode="C" horiz-adv-x="1234" d="M90 499q0 339 284 695q237 297 478 297q49 0 88 -4.5t69 -14.5q35 51 91 51q69 0 87 -91q16 -81 16 -199q0 -41 -22 -72q-27 -39 -77 -39q-64 0 -96 75q-28 64 -52 78q-21 11 -104 11q-145 0 -322 -222q-240 -298 -240 -565q0 -129 83 -222q85 -96 205 -96q103 0 207 53 q58 30 178 118q57 42 86 42q43 0 72 -32.5t29 -72.5q0 -45 -38 -79q-264 -234 -534 -234q-207 0 -350 159q-138 154 -138 364z" />
<glyph unicode="D" horiz-adv-x="1478" d="M183 97q0 105 9.5 314.5t9.5 314.5q0 117 -4.5 349.5t-4.5 349.5q0 41 42 86t84 45q24 0 160 -67q154 -75 178 -83q284 -97 484 -298q235 -237 235 -521q0 -171 -80.5 -328t-219.5 -252q-155 -106 -445 -106q-73 0 -167 23q-113 27 -170 70h-10q-43 0 -72 30t-29 73z M387 174q7 -3 21 -13q88 -59 222 -59q228 0 332 70q97 66 154.5 177.5t57.5 232.5q0 282 -308 483q-102 67 -471 230l5 -288l3 -287z" />
<glyph unicode="E" horiz-adv-x="1279" d="M140 393q0 64 3 140t8 164q-11 23 -11 49q0 34 19 61q20 289 20 427q0 37 -10 108.5t-10 108.5q0 119 100 119q42 0 72 -29q120 32 226.5 48t200.5 16q243 0 388 -58q67 -27 67 -96q0 -40 -26 -71q-29 -34 -72 -34q-14 0 -31 5q-169 48 -326 48q-82 0 -179 -15t-209 -46 q9 -65 9 -104q0 -139 -17 -382l438 42q193 20 237 20t74 -28t30 -75q0 -91 -92 -102l-238 -21l-462 -42q-4 -71 -6.5 -134.5t-2.5 -118.5q0 -221 32 -260q24 -28 157 -28q62 0 186.5 3.5t187.5 3.5q20 0 59 6.5t58 6.5q106 0 106 -104q0 -84 -85 -101q-94 -19 -407 -19 q-310 0 -398 82q-96 89 -96 410z" />
<glyph unicode="F" horiz-adv-x="1243" d="M173 -4q0 197 7.5 591.5t7.5 591.5q0 44 -1.5 132.5t-1.5 132.5t27.5 74t71.5 30q33 0 59 -18q124 22 223 32.5t174 10.5q115 0 263 -33q201 -46 201 -120q0 -40 -26 -71q-29 -35 -72 -35q-18 0 -38 8q-124 46 -328 46q-66 0 -154.5 -9.5t-198.5 -29.5l-2 -432 q193 51 290 51q154 0 319 -18q94 -10 94 -102q0 -45 -29 -74.5t-72 -29.5q-52 0 -156 9t-156 9q-68 0 -294 -58l-9 -688q0 -43 -28 -72.5t-71 -29.5t-71.5 29.5t-28.5 72.5z" />
<glyph unicode="G" horiz-adv-x="1392" d="M79 481q0 259 122.5 533.5t314.5 443.5q128 113 271 113q91 0 240 -60q182 -72 182 -159q0 -41 -30 -73t-72 -32q-22 0 -62 25q-153 93 -258 93q-75 0 -157 -78q-41 -39 -118 -142q-231 -306 -231 -664q0 -188 58 -263q63 -82 232 -82q179 0 311 113q139 120 194 343 q-277 -14 -475 -107q-23 -11 -45 -11q-44 0 -73 34q-27 31 -27 72q0 55 53 88q216 132 745 132q43 0 72 -29t29 -73q0 -65 -55 -93q-62 -307 -260.5 -490.5t-468.5 -183.5q-246 0 -369 137.5t-123 412.5z" />
<glyph unicode="H" horiz-adv-x="1573" d="M152 15q0 106 17.5 316.5t17.5 316.5q0 55 -4 166t-4 167q0 79 10 237.5t10 237.5q0 42 27.5 70t68.5 28t68.5 -28t27.5 -70q0 -80 -10.5 -239.5t-10.5 -239.5l6 -253l429 81q257 48 433 50q11 143 11 431q0 76 25 154q33 107 93 107q38 0 68 -27.5t30 -69.5 q0 -15 -9 -41q-15 -42 -15 -123q0 -30 2 -89t2 -89q0 -100 -17.5 -298t-17.5 -298q0 -76 11 -228t11 -229q0 -41 -27.5 -69t-68.5 -28q-40 0 -68 28t-28 69q0 77 -11 229t-11 228q0 73 5 148q-171 -3 -423 -51l-420 -82q0 -90 -18 -255.5t-18 -256.5q0 -41 -27.5 -69.5 t-68.5 -28.5t-68.5 28.5t-27.5 69.5z" />
<glyph unicode="I" horiz-adv-x="1119" d="M75 1384q0 93 94 102q81 8 303 8q199 0 499 -43q89 -13 89 -107q0 -47 -34 -75q-30 -23 -69 -23q-64 0 -161 13l-161 21q-23 -291 -23 -556q0 -70 4 -173t4 -173q0 -94 -7 -171l315 4q42 0 70.5 -29.5t28.5 -72.5q0 -44 -28.5 -73.5t-70.5 -29.5q-56 0 -168 -2.5 t-168 -2.5q-66 0 -197.5 -18.5t-198.5 -18.5q-42 0 -70.5 29.5t-28.5 72.5t28.5 73t70.5 30q65 0 215 21q10 81 10 185q0 69 -6.5 168.5t-6.5 167.5q0 231 28 577l-130 -4l-130 -3q-43 0 -72 29t-29 74z" />
<glyph unicode="J" horiz-adv-x="1362" d="M94 327q0 123 101 123t101 -121q0 -83 118 -165q113 -78 214 -78q82 0 114 503q15 238 15 598q0 28 -5 108l-61 -1q-39 0 -117.5 2.5t-118.5 2.5q-44 0 -74 28t-30 76q0 103 139 103q34 0 101 -3t100 -3q63 0 188.5 7.5t188.5 7.5q228 0 228 -116q0 -40 -27 -71 q-29 -34 -72 -34q-18 0 -61.5 7.5t-67.5 7.5q-49 0 -115 -3l5 -119q0 -744 -99 -1083q-66 -224 -231 -224q-174 0 -345 126q-189 140 -189 321z" />
<glyph unicode="K" horiz-adv-x="1251" d="M214 29q0 234 14 700t14 699q0 43 28.5 73t70.5 30q43 0 71.5 -30t28.5 -73q0 -97 -12 -302q-11 -183 -11 -286v-17q134 127 303 319l287 333q34 39 76 39q40 0 71 -30t31 -73q0 -66 -258 -352q-178 -195 -368 -382q120 -126 376 -362l105 -88q57 -44 123 -66 q79 -26 79 -99q0 -34 -21 -65q-26 -38 -69 -38q-152 0 -433 267l-299 301v-14l-1 -524q0 -99 -87 -99q-57 0 -91 50q-28 41 -28 89z" />
<glyph unicode="L" horiz-adv-x="1128" d="M101 92l20 331q26 458 26 1016q0 43 28.5 73t70.5 30q43 0 71.5 -30t28.5 -73q0 -565 -27 -1028l-13 -152q-6 -66 -6 -121v-26h12q258 0 648 123q17 5 32 5q43 0 72 -34q25 -31 25 -71q0 -64 -64 -94q-113 -53 -355 -95q-223 -39 -364 -39q-101 0 -145 31q-60 42 -60 154 z" />
<glyph unicode="M" horiz-adv-x="1808" d="M112 44q0 167 69 410l110 403l58 315q44 221 93 289q40 58 99 58q65 0 97 -74q39 -89 84 -363q53 -329 165 -712q148 385 256 802l30 146q18 88 47 142q39 74 107 74q86 0 131 -166q16 -57 39 -236q59 -452 147 -772l49 -172q38 -138 38 -170q0 -43 -32.5 -72t-73.5 -29 q-54 0 -89 56q-30 48 -54 160l-36 172q-41 160 -130 706l-200 -603l-59 -190q-36 -113 -75 -185q-42 -76 -113 -76q-59 0 -93 64q-22 42 -40 107l-29 111q-101 353 -178 756l-36 -179l-129 -528q-8 -93 -50 -275q-30 -78 -99 -78q-49 0 -78 35q-25 30 -25 74z" />
<glyph unicode="N" horiz-adv-x="1632" d="M123 1429q0 46 39.5 84t89.5 38q53 0 131 -116q249 -373 448 -620q237 -293 520 -560q2 22 1.5 53.5t-1.5 73.5l-3 126q0 439 -34 699q-4 26 -27 105q-20 68 -20 106q0 116 106 116q174 0 174 -649q0 -111 -3 -331.5t-3 -331.5q0 -48 -16 -160q-16 -101 -107 -101 q-55 0 -131 72q-407 385 -934 1111l-5 -227l-3 -228q0 -83 3.5 -249t3.5 -250q0 -269 -104 -269q-55 0 -87 35q-29 31 -29 74q0 42 6.5 127t6.5 127q0 62 4 185.5t4 185.5q0 66 -3 199.5t-3 199.5q0 63 -12 187.5t-12 187.5z" />
<glyph unicode="O" horiz-adv-x="1635" d="M116 572q0 346 205 629q229 314 571 314q329 0 489 -148q167 -154 167 -486q0 -346 -188 -624q-216 -318 -558 -318q-282 0 -478 169q-208 180 -208 464zM320 572q0 -193 143 -314q137 -114 339 -114q243 0 401 245q141 219 141 492q0 239 -107 336q-102 93 -345 93 q-245 0 -415 -244q-157 -224 -157 -494z" />
<glyph unicode="P" horiz-adv-x="1066" d="M100 71v294q0 147 18 414q20 289 22 414v138q0 99 12 144q20 77 81 77q8 0 17 -1q32 10 91 15t145 5q183 0 343 -125q176 -138 176 -332q0 -248 -188 -395q-168 -132 -404 -132q-28 0 -122 13q-8 -151 -8 -529q0 -40 -26 -67.5t-65 -27.5q-40 0 -66 27.5t-26 67.5z M303 791l110 -13q168 0 283 85q126 93 126 251q0 112 -120 193q-111 74 -239 74q-44 0 -78.5 -2t-58.5 -6l-2 -184z" />
<glyph unicode="Q" horiz-adv-x="1795" d="M77 667q0 357 266 606q260 242 615 242q374 0 567 -280q164 -240 164 -621q0 -331 -324 -557l218 -201l129 -110q38 -36 38 -78q0 -41 -30.5 -73.5t-73.5 -32.5q-44 0 -237 171l-239 219q-169 -68 -335 -68q-301 0 -529.5 240t-228.5 543zM282 667q0 -219 169 -396 q170 -180 384 -180q69 0 142 17q-193 168 -193 265q0 44 32.5 73t72.5 29q48 0 85 -48q99 -129 224 -231q285 166 285 418q0 297 -121 482q-138 212 -404 212q-274 0 -472 -183q-204 -188 -204 -458z" />
<glyph unicode="R" horiz-adv-x="1287" d="M117 539q0 92 20 274t20 273q0 51 -9.5 151t-9.5 151q0 57 32 100q35 48 94 48h11l241 -19q137 -17 231 -67q405 -215 405 -525q0 -152 -138 -269q-111 -94 -277 -143q311 -167 465 -352q26 -32 26 -68q0 -42 -30.5 -73t-71.5 -31q-38 0 -71 32q-331 327 -736 440l8 -196 l5 -197q0 -44 -28.5 -73.5t-71.5 -29.5t-71.5 29.5t-28.5 73.5q0 79 -7.5 235.5t-7.5 235.5zM324 683q14 0 43.5 -1t44.5 -1q255 0 382 68q56 31 104 81q53 56 53 95q0 139 -158 259q-145 110 -304 127l-148 12l10 -121q7 -74 7 -121q0 -80 -13 -199z" />
<glyph unicode="S" horiz-adv-x="1420" d="M134 252q0 40 28 66q30 26 73 26q49 0 86 -56q51 -76 91 -103q85 -56 247 -56q155 0 288 67q170 86 170 239q0 126 -143 199q-121 63 -299 68q-158 6 -269 69q-142 81 -142 232q0 178 202 325q193 139 399 139q97 0 219 -33q162 -43 162 -110q0 -88 -90 -88 q-40 0 -140 22q-96 21 -150 20h-5q-156 -2 -265 -77q-112 -77 -112 -187q0 -83 148 -117q55 -13 213 -24q229 -17 358 -144q118 -116 118 -283q0 -238 -220 -380q-191 -123 -443 -123q-183 0 -335 70q-189 88 -189 239z" />
<glyph unicode="T" horiz-adv-x="1392" d="M116 1411q0 41 26 72q28 32 70 32h7q35 -2 160 -18q100 -12 162 -12q60 0 182 2.5t182 2.5q77 0 228.5 -11t228.5 -11q43 0 72 -29.5t29 -73.5q0 -43 -29 -72.5t-72 -29.5q-74 0 -228 12q-138 10 -214 10h-14h-71q3 -138 27 -448q22 -289 22 -449q0 -35 7 -106t7 -107 q0 -68 -22 -117q-28 -66 -87 -66q-40 0 -72 28t-32 72q0 15 5 45t5 45q0 49 -6.5 147t-6.5 148q0 143 -23 402q-24 280 -27 402l-91 -1q-219 0 -344 32q-81 21 -81 99z" />
<glyph unicode="U" horiz-adv-x="1509" d="M155 1072q0 140 6 226q6 91 18 127q25 73 90 73q92 0 92 -169v-587q0 -606 424 -606q399 0 399 1020v98q-1 60 -1 80q0 62 22 109q28 60 83 60q100 0 100 -137q0 -41 1 -124v-124q0 -1158 -599 -1158q-311 0 -464 179q-124 144 -156 426q-15 127 -15 507z" />
<glyph unicode="V" horiz-adv-x="1331" d="M145 1420q0 45 32 74q29 27 70 27q76 0 98 -82l37 -174l96 -340q96 -372 187 -641l6 16l268 726l85 245q57 148 121 224q33 40 78 40q40 0 71.5 -30.5t31.5 -73.5q0 -30 -20 -60q-62 -93 -101 -195l-76 -219l-269 -727q-47 -128 -110 -250q-32 -60 -90 -60q-77 0 -108 78 q-121 304 -269 875l-79 275q-59 208 -59 272z" />
<glyph unicode="W" horiz-adv-x="2129" d="M139 1433q0 93 105 93q65 0 100 -71q18 -36 73 -207q59 -181 118 -436l97 -442q107 248 213 604q65 217 99 301q90 221 175 221q70 0 99 -71q36 -86 73 -410q20 -164 68 -394l86 -393q134 322 335 871q11 30 50 189q29 117 71 182q36 55 94 55q101 0 101 -100 q0 -17 -32 -100l-40 -108l-55 -178l-297 -722q-41 -119 -141 -346q-36 -67 -108 -67q-46 0 -81 26q-40 30 -40 74q-46 121 -58 197t-79 431q-51 269 -68 432q-89 -330 -191 -559q-118 -265 -153 -415q12 -23 12 -45q0 -45 -40 -74q-36 -27 -82 -27q-135 0 -135 121l-31 127 l-109 490q-65 248 -222 711q-7 22 -7 40z" />
<glyph unicode="X" horiz-adv-x="1482" d="M68 35q0 36 26 68l180 201l375 435q-110 147 -234 295l-116 157q-70 94 -130 144q-42 35 -42 81q0 41 29 73t72 32q85 0 217 -181q41 -61 125 -173q114 -136 217 -273l228 318q222 309 288 309q41 0 72 -31t31 -73q0 -35 -27 -68q-134 -162 -206 -267l-125 -184 q-73 -104 -137 -175l220 -322q131 -191 233 -312q27 -33 27 -69q0 -42 -30.5 -73t-72.5 -31q-38 0 -71 31q-74 70 -154 190l-134 206l-157 225l-344 -398l-184 -206q-33 -33 -73 -33q-41 0 -72 31t-31 73z" />
<glyph unicode="Y" horiz-adv-x="1301" d="M29 1419q0 43 31.5 72.5t71.5 29.5q49 0 82 -47l80 -124q106 -157 140 -214q75 -123 117 -228q33 -83 141 -227l229 558q39 69 108 213q28 68 93 68q40 0 71.5 -28t31.5 -72q0 -46 -53 -141q-24 -38 -64 -117l-172 -425q-100 -239 -188 -418l-125 -223l-53 -108 q-33 -58 -89 -58q-39 0 -71 29t-32 72q0 34 94 213l123 225q-179 231 -232 364q-45 113 -150 271q-144 216 -169 261q-15 27 -15 54z" />
<glyph unicode="Z" horiz-adv-x="1420" d="M68 50q0 66 62 166l107 149l361 502q223 295 415 458l-350 -20h-404q-11 0 -32.5 -1.5t-31.5 -1.5q-106 0 -106 103q0 68 54 90q33 14 109 14q69 0 205.5 -14.5t205.5 -14.5q77 0 230.5 10t231.5 10q257 0 257 -97q0 -66 -116 -152l-135 -92q-182 -141 -412 -451 l-351 -511q-25 -38 -49 -70l389 15q255 12 390 12q132 0 195 -12q81 -16 84 -82v-5q0 -45 -32 -73q-30 -25 -75 -25q-29 0 -87 3.5t-87 3.5q-152 0 -456.5 -7.5t-456.5 -7.5q-115 0 -115 101z" />
<glyph unicode="[" horiz-adv-x="771" d="M176 -300q0 183 14.5 703.5t14.5 703.5l-16 303l-1 14q-2 38 23.5 67t65.5 29q30 0 90.5 -2.5t90.5 -2.5q19 0 56.5 2.5t56.5 2.5q92 0 92 -97q0 -89 -84 -97t-203 -3q6 -90 6 -203l-13 -671l-16 -670l87 3q29 0 87.5 -2.5t87.5 -2.5q40 0 63.5 -28.5t23.5 -68.5 t-23.5 -68.5t-63.5 -28.5q-29 0 -87.5 2.5t-87.5 2.5q-22 0 -67 -2.5t-68 -2.5q-129 0 -129 117z" />
<glyph unicode="\" horiz-adv-x="1126" d="M177 1427q0 39 29.5 68t67.5 29q45 0 76 -46q114 -171 247 -488l205 -515q107 -272 201 -473q12 -25 12 -47q0 -39 -28.5 -67.5t-66.5 -28.5q-50 0 -80 51q-38 63 -117 250l-291 745q-64 151 -239 469q-16 29 -16 53z" />
<glyph unicode="]" horiz-adv-x="771" d="M176 -320q0 -40 24 -68.5t63 -28.5q29 0 87.5 2.5t87.5 2.5q23 0 68 -2.5t67 -2.5q129 0 129 117q0 183 -14.5 703.5t-14.5 703.5l16 303l1 14q2 38 -23.5 67t-64.5 29q-31 0 -91.5 -2.5t-90.5 -2.5q-19 0 -56.5 2.5t-56.5 2.5q-92 0 -92 -97q0 -89 84 -97t204 -3 q-7 -90 -7 -203l13 -671l16 -670l-87 3q-29 0 -87.5 -2.5t-87.5 -2.5q-39 0 -63 -28.5t-24 -68.5z" />
<glyph unicode="^" horiz-adv-x="1190" d="M198 1214q0 35 31 64q55 54 304 337q27 31 61 31q55 0 132 -68q24 -21 110 -111l158 -170q27 -30 27 -61q0 -37 -28 -64.5t-64 -27.5q-33 0 -63 29q-80 90 -251 260q-254 -311 -326 -311q-36 0 -63.5 28t-27.5 64z" />
<glyph unicode="_" horiz-adv-x="1284" d="M-35 -160q100 0 300 1.5t300 1.5q71 0 211.5 -5.5t211.5 -5.5l335 8v-185h-350q-71 0 -213 5t-213 5h-445q-23 0 -69 -5t-68 -5v185z" />
<glyph unicode="`" horiz-adv-x="1139" d="M149 1568q0 36 26.5 64.5t62.5 28.5q62 0 202 -166q137 -164 137 -228q0 -36 -28.5 -62.5t-64.5 -26.5q-43 0 -72 42l-100 149q-53 73 -124 128q-39 30 -39 71z" />
<glyph unicode="a" horiz-adv-x="1048" d="M51 458q0 242 166.5 414t397.5 172q87 0 195 -45q136 -56 136 -135q0 -27 -20 -48q-10 -38 -15.5 -125t-6.5 -223v-13q0 -115 17 -183q10 -44 63 -176q7 -18 23 -53l6 -17q0 -40 -28 -66t-65 -26q-19 0 -69 44q-45 41 -67 73q-96 -52 -169 -78.5t-122 -26.5 q-234 0 -341 132q-101 124 -101 380zM248 449q0 -164 58 -246t174 -82q96 0 163 35q36 19 101 76q-32 265 -32 397q0 43 5.5 93.5t16.5 107.5q-37 19 -63.5 28t-42.5 9q-155 0 -267.5 -126.5t-112.5 -291.5z" />
<glyph unicode="b" horiz-adv-x="1215" d="M153 852q0 73 1 276.5t1 277.5q0 60 25 108q33 61 91 61q75 0 75 -87q0 -14 -5 -41t-5 -41l-3 -219l-2 -255q87 59 165.5 88.5t147.5 29.5q215 0 349 -165q126 -155 126 -381q0 -228 -147 -387t-366 -159q-153 0 -278 60q-32 -48 -78 -48q-38 0 -64.5 26.5t-26.5 66.5 q0 26 2.5 77t2.5 77q0 106 -5.5 317.5t-5.5 317.5zM330 543l1 -156l1 -164q48 -22 135 -56q62 -19 139 -19q145 0 238 102t93 254q0 149 -75 249q-81 108 -218 108q-82 0 -168 -46q-42 -23 -144 -99z" />
<glyph unicode="c" horiz-adv-x="1052" d="M105 404q0 203 135 419q150 240 338 240q98 0 219 -46q153 -59 153 -144q0 -38 -25 -67.5t-62 -29.5q-29 0 -50.5 17.5t-41.5 34.5q-59 47 -193 47q-102 0 -202 -182q-91 -167 -91 -289q0 -132 90 -208q84 -71 216 -71q60 0 128 32l116 62q30 16 43 16q37 0 64 -29.5 t27 -67.5q0 -73 -154 -141q-135 -60 -224 -60q-205 0 -342 124q-144 130 -144 343z" />
<glyph unicode="d" horiz-adv-x="1203" d="M103 454q0 267 141.5 428t367.5 161q116 0 179 -36l94 -69q14 421 33 567q13 89 91 89q91 0 91 -97q0 -139 -40 -614q-12 -147 -12 -294q0 -333 31 -503q2 -14 2 -23q0 -40 -28 -66t-65 -26q-62 0 -91 90q-72 -53 -149.5 -80t-161.5 -27q-207 0 -343 138 q-140 141 -140 362zM280 458q0 -129 91.5 -222t214.5 -93q84 0 142 31q34 18 111 83q15 13 29 31l-3 173l1 116l2 118q-38 81 -101 121.5t-151 40.5q-168 0 -252 -99.5t-84 -299.5z" />
<glyph unicode="e" horiz-adv-x="1122" d="M87 417q0 260 126 436q137 192 366 192q166 0 271 -56q129 -69 129 -212q0 -100 -113 -182q-50 -36 -212 -112l-382 -181q56 -83 139.5 -125t194.5 -42q69 0 162 26q118 33 152 86.5t73 53.5q35 0 62.5 -26.5t27.5 -61.5q0 -111 -179 -191q-153 -68 -298 -68 q-226 0 -366 113q-153 125 -153 350zM255 486l307 146q181 88 258 153q-86 80 -241 80q-122 0 -203 -94.5t-121 -284.5z" />
<glyph unicode="f" horiz-adv-x="1041" d="M75 886q0 99 175 104l96 3q3 56 15 152q26 222 112 327q104 127 325 127q143 0 143 -97q0 -96 -130 -96q-242 0 -271 -336l-3 -62q170 12 220 12q159 0 159 -100q0 -73 -78 -87q-27 -5 -62 -5h-18q-4 1 -9 1q-53 0 -221 -14l-8 -228q0 -62 4 -186t4 -185q0 -190 -22 -296 q-17 -80 -93 -80q-41 0 -70 26.5t-29 66.5q0 8 2 20q21 130 21 283l-3 273v290q-125 -10 -158 -10q-101 0 -101 97z" />
<glyph unicode="g" horiz-adv-x="1087" d="M58 -442q0 89 87 89q36 0 120 -17q75 -16 165 -16h21q192 3 265 186q48 122 51 375q-54 -100 -128.5 -150t-170.5 -50q-181 0 -294.5 123.5t-113.5 320.5q0 270 155 435q160 170 436 170q93 0 156 -24t96 -72q107 -3 107 -119q0 -71 -21 -190q-23 -138 -27 -188l-23 -336 q-6 -200 -41 -327q-45 -162 -144 -239q-120 -93 -347 -93q-133 0 -223 18q-126 25 -126 104zM254 433q0 -145 55 -218t165 -73q101 0 196 114q86 105 98 208q21 108 45 339q-40 31 -83 46t-89 15q-190 0 -294 -131q-93 -118 -93 -300z" />
<glyph unicode="h" horiz-adv-x="1183" d="M145 74q0 14 9 44q8 25 11 146l3 148l3 735q7 124 7 167q0 51 -9.5 96.5t-9.5 94.5q0 42 29 69.5t71 27.5q82 0 96 -88q16 -97 16 -175q0 -105 -7 -219q-5 -93 -5 -188v-31l1 -88q82 110 175.5 164.5t198.5 54.5q166 0 228 -108q44 -76 50 -256l8 -191l20 -208 q14 -117 34 -206q4 -17 4 -29q0 -41 -30 -68.5t-72 -27.5q-71 0 -93 76q-23 82 -42 233q-18 145 -18 238q0 26 2.5 79t2.5 79q0 188 -94 188q-127 0 -227 -115q-51 -59 -140 -225q0 -381 -32 -451q-28 -62 -87 -62q-41 0 -72 28t-31 68z" />
<glyph unicode="i" horiz-adv-x="574" d="M179 454q0 94 10 234.5t10 234.5q0 45 27.5 73t70.5 28t70.5 -28t27.5 -73q0 -94 -10 -234.5t-10 -234.5q0 -60 3.5 -179.5t3.5 -179.5q0 -44 -27 -72t-71 -28q-43 0 -70.5 28t-27.5 72q0 60 -3.5 179.5t-3.5 179.5zM212 1382q0 48 35 82t83 34t82.5 -34t34.5 -82 t-34.5 -82t-82.5 -34t-83 34t-35 82z" />
<glyph unicode="j" horiz-adv-x="826" d="M-18 -218q0 40 31.5 69t71.5 29q59 0 123 -130q16 -34 56 -98q39 -50 90 -50q44 0 75 66q24 50 30 100v7q0 123 -34 592l-34 551q0 50 28.5 89t72.5 39q34 0 68 -25t36 -51l33 -576l27 -616q0 -139 -83 -252q-90 -123 -219 -123q-215 0 -360 331q-12 27 -12 48zM350 1380 q0 48 34.5 82t82.5 34t83 -34t35 -82q0 -47 -35 -81t-83 -34t-82.5 34t-34.5 81z" />
<glyph unicode="k" horiz-adv-x="1106" d="M163 101q0 83 11.5 248.5t11.5 248.5q0 152 4.5 347.5t4.5 345.5q0 45 -4.5 106t-4.5 106t27.5 73t70.5 28t70.5 -28t27.5 -73q0 -46 5 -108.5t5 -108.5l-8 -322q-4 -124 -3 -249q0 -50 1 -99q136 104 262 228l220 227q33 34 71 34q39 0 70.5 -31t31.5 -72q0 -34 -29 -67 q-123 -144 -303 -309l218 -297q153 -209 153 -272q0 -40 -31.5 -69t-72.5 -29q-55 0 -85 58q-52 101 -157 239l-177 241q-58 -46 -180 -129q-11 -155 -11 -302q0 -45 -27.5 -73t-70.5 -28q-101 0 -101 136z" />
<glyph unicode="l" horiz-adv-x="561" d="M174 59q0 121 11 363.5t11 363.5q0 158 5 361.5t5 361.5q0 100 98 100q99 0 99 -100q0 -158 -5 -361.5t-5 -361.5l-15 -497q0 -79 -8 -232q-10 -100 -98 -100q-98 0 -98 102z" />
<glyph unicode="m" horiz-adv-x="1591" d="M121 206q0 60 11 179t11 179q0 53 -9.5 159t-9.5 160q0 227 102 227q39 0 71.5 -34t32.5 -74q0 -19 -5 -59t-5 -61l2 -105q52 107 153 193.5t172 86.5q157 0 216 -156q55 73 131 109.5t174 36.5q167 0 228 -180q12 -36 41 -281q28 -172 72 -573v-7q0 -35 -27 -61 q-30 -28 -73 -28q-82 0 -96 87q-18 110 -36 310l-34 310q-10 69 -34 135q-34 90 -74 90q-37 0 -138 -63q-96 -58 -126 -93v-27q0 -81 5 -161l30 -267q19 -158 19 -261q0 -44 -27.5 -72.5t-70.5 -28.5t-70.5 28.5t-27.5 72.5q0 121 -24.5 357.5t-24.5 357.5q0 106 -30 165 q-70 -32 -142 -104l-118 -132q-16 -24 -51 -63q0 -60 -11 -177t-11 -173q0 -30 9.5 -84t9.5 -78q0 -41 -30.5 -69t-71.5 -28q-113 0 -113 257z" />
<glyph unicode="n" horiz-adv-x="1072" d="M124 233q0 103 14.5 285.5t14.5 285.5q0 32 -3.5 95t-3.5 95q0 43 28.5 70.5t70.5 27.5q92 0 101 -130l3 -117q168 224 345 224q160 0 223 -141q43 -94 47 -278v-101l-1 -93q0 -83 21.5 -214.5t21.5 -213.5q0 -44 -28.5 -71.5t-71.5 -27.5q-86 0 -97 94l-28 219 q-14 117 -14 219q0 28 3.5 95t3.5 95q0 216 -80 216q-112 0 -214 -133q-92 -121 -144 -306q-2 -39 -9 -98q-6 -50 -6 -97q0 -30 6 -90t6 -90q0 -45 -27.5 -73t-70.5 -28q-44 0 -71 28t-27 73q0 30 -6.5 90t-6.5 90z" />
<glyph unicode="o" horiz-adv-x="1077" d="M83 436v21q0 213 114 377q140 203 390 203q200 0 303 -183q79 -143 79 -341v-15q-3 -222 -116 -379q-128 -178 -339 -178q-168 0 -289 124q-135 138 -142 371zM280 436q0 -145 79 -226q66 -67 155 -67q104 0 179 76q85 84 90 227q1 23 1 44q0 343 -210 344h-2 q-146 0 -227 -140q-65 -113 -65 -258z" />
<glyph unicode="p" horiz-adv-x="1095" d="M119 920q0 71 26 120q30 59 87 59q39 0 65.5 -27.5t26.5 -67.5q0 -9 -3 -33q-5 -31 -7 -57q86 59 166 88.5t153 29.5q205 0 300 -182q75 -144 75 -381q0 -216 -116 -356q-123 -148 -328 -148q-100 0 -220 32l-2 -478q0 -44 -27.5 -72t-70.5 -28t-70.5 28t-27.5 72l3 400 v399q-3 219 -15 399zM333 685q13 -227 13 -477q109 -42 218 -42q125 0 191 93q57 81 57 210q0 182 -44.5 272.5t-134.5 90.5q-92 0 -166 -41q-53 -29 -134 -106z" />
<glyph unicode="q" horiz-adv-x="1065" d="M60 413q0 293 165 470q167 180 454 180h6q55 0 83 -43q43 38 76 38q40 0 69.5 -32t29.5 -73q0 -295 -34 -638l-46 -384q-25 -214 -25 -387q0 -44 -27 -72t-71 -28q-92 0 -98 101q-1 12 -1 26q0 36 6 85l13 111l19 221q-86 -23 -121 -23q-218 0 -353 113 q-145 121 -145 335zM260 409q0 -118 72 -192q75 -78 206 -78h13q95 3 139 103q48 112 51 381l14 267q-13 -4 -38 -4q-14 0 -32 1q-37 4 -56 4q-10 0 -15 -1q-184 -33 -278 -187q-76 -125 -76 -294z" />
<glyph unicode="r" horiz-adv-x="984" d="M139 34v702q0 33 2.5 99t2.5 99q0 101 88 101q98 0 99 -166q192 185 426 185q81 0 121 -61t40 -184q0 -52 -1 -70q-7 -125 -100 -125q-86 0 -86 99q0 19 -3 70l-3 84q-158 -19 -253 -89q-89 -65 -148 -196l2 -548q0 -101 -99 -101q-88 0 -88 101z" />
<glyph unicode="s" horiz-adv-x="997" d="M41 140q0 40 31.5 70t71.5 30q31 0 80 -48q24 -23 108 -38q67 -12 113 -12q84 0 148 20q93 29 93 92q0 136 -190 184l-104 23q-133 29 -189 68q-81 56 -81 169q0 209 197 298q60 27 192 64.5t189 63.5q41 18 89 18q43 0 70.5 -28t27.5 -73q0 -29 12.5 -85t12.5 -85 q0 -45 -27.5 -73t-70.5 -28q-55 0 -77 37q-15 26 -26 108q-75 -19 -231 -70q-161 -64 -162 -158q30 -11 59 -16q230 -41 342 -113q163 -105 163 -304q0 -163 -141 -246q-117 -68 -296 -68q-131 0 -250 44q-154 56 -154 156z" />
<glyph unicode="t" horiz-adv-x="965" d="M65 955q0 44 27 73t69 29l210 -17q0 51 -4.5 136.5t-4.5 123.5q0 42 29 69.5t71 27.5q90 0 105 -147q3 -37 3 -89l-2 -58l-1 -62q124 16 142 16q104 0 136 -10q61 -20 61 -94q0 -44 -27.5 -72.5t-70.5 -28.5q-21 0 -49.5 2t-49.5 2q-23 0 -136 -15l19 -591l1 -44l1 -51 v-15q0 -204 -105 -204q-40 0 -69.5 26t-29.5 65q0 38 3 114t3 114l-20 584q-73 3 -222 17q-89 12 -89 99z" />
<glyph unicode="u" horiz-adv-x="1065" d="M109 667q0 137 30 312q14 87 95 87q43 0 72 -27.5t29 -70.5q0 -46 -14.5 -147t-14.5 -154q0 -167 11 -286t33 -191q33 -18 65 -27.5t63 -9.5q134 0 283 43l-1 203l-2 194q0 216 19 375q11 92 97 92q43 0 72 -28q27 -26 27 -65v-5l-18 -378q0 -72 1 -216t1 -216 q0 -22 3.5 -67t3.5 -67q0 -43 -29 -70.5t-71 -27.5q-77 0 -98 95q-125 -65 -288 -65q-131 0 -217 58q-95 64 -113 187q-39 265 -39 472z" />
<glyph unicode="v" horiz-adv-x="996" d="M62 957q0 41 31 70t72 29q60 0 86 -61l254 -699q75 160 189 464q27 80 85 226q31 64 88 64q41 0 72 -29t31 -69q0 -38 -165 -428l-205 -472q-3 -92 -91 -92q-73 0 -106 86l-153 406l-178 459q-10 26 -10 46z" />
<glyph unicode="w" horiz-adv-x="1401" d="M76 944q0 42 29.5 69.5t71.5 27.5q76 0 94 -83q13 -59 21 -146l15 -147l59 -449q111 308 230 710q33 111 115 111q79 0 107 -124q26 -117 65 -360q40 -252 71 -393l73 272l129 545q15 61 86 61q42 0 73 -28.5t31 -68.5q0 -5 -10 -46q-78 -326 -204 -737q-28 -91 -93 -187 q-34 -52 -93 -52h-2q-109 2 -170 271q-20 86 -41 234l-33 223l-82 -191l-152 -413q-13 -38 -38 -58q-30 -58 -96 -60h-1q-75 0 -146 298q-36 155 -72 420l-24 150q-13 90 -13 151z" />
<glyph unicode="x" horiz-adv-x="1209" d="M61 102q0 31 25 63q28 37 87 89q69 61 91 84l213 223l-131 189q-79 113 -138 165q-38 34 -38 74t28.5 71t65.5 31q59 0 178 -154l173 -239l196 180q122 115 165 180q32 47 76 47q39 0 69 -29t30 -67q0 -55 -93 -151l-146 -137l-178 -177l326 -426q25 -32 25 -63 q0 -39 -30 -69t-68 -30t-69 37q-92 107 -324 412l-195 -201q-59 -53 -172 -165q-32 -36 -69 -36q-38 0 -67.5 30t-29.5 69z" />
<glyph unicode="y" horiz-adv-x="1066" d="M-4 935q0 41 31.5 72t70.5 31q46 0 71 -35q170 -236 365 -672l148 345q80 179 154 308q32 56 84 56q41 0 72.5 -29t31.5 -69q0 -22 -13 -50l-346 -748q-128 -273 -196 -457l-66 -194q-26 -72 -90 -72q-42 0 -72.5 27.5t-30.5 68.5q0 100 216 579l-358 689l-45 73 q-27 46 -27 77z" />
<glyph unicode="z" horiz-adv-x="1102" d="M122 8q0 50 50 96q261 236 568 735q-133 -8 -193 -8q-148 0 -304 23q-89 13 -89 99q0 44 27 73.5t68 29.5q49 0 148 -11.5t150 -11.5q68 0 204 9.5t204 9.5q85 0 85 -70q0 -81 -76 -173q-89 -107 -228 -310q-161 -236 -236 -334q105 5 183 5q39 0 116 -15t116 -15 q44 0 71.5 -28.5t27.5 -72.5q0 -45 -27.5 -73t-71.5 -28q-39 0 -116 15t-116 15q-225 0 -427 -41q-21 -4 -37 -4q-97 0 -97 85z" />
<glyph unicode="{" horiz-adv-x="750" d="M6 556q0 -45 94.5 -112.5t94.5 -149.5q0 -27 -8 -82t-8 -82q0 -177 83 -330q100 -184 261 -184q74 0 105 12q51 21 51 84q0 66 -51 83q-23 8 -105 8q-69 0 -118 135q-39 108 -39 192q0 33 8 99t8 99q0 47 -45 129q-38 71 -78 116q55 27 98 106q41 75 41 135 q0 43 -6.5 204t-6.5 204q0 197 140 212q34 1 101 10q71 16 71 70q0 52 -58 84q-48 27 -104 27q-63 0 -132 -29q-199 -87 -199 -403l5 -199l3 -199v-28q-50 -14 -124 -83q-82 -76 -82 -128z" />
<glyph unicode="|" horiz-adv-x="863" d="M353 25v1601q0 39 26 64t66 25q86 0 86 -89v-1871q-2 -117 -87 -117q-59 0 -80 76q-11 40 -11 311z" />
<glyph unicode="}" horiz-adv-x="750" d="M6 1514q0 52 58 84q48 27 104 27q63 0 132 -29q199 -87 199 -403l-5 -199l-3 -199v-28q50 -14 124 -83q82 -76 82 -128q0 -45 -95 -112.5t-95 -149.5q0 -27 8.5 -82t8.5 -82q0 -177 -83 -330q-100 -184 -261 -184q-74 0 -105 12q-51 21 -51 84q0 66 51 83q23 8 105 8 q69 0 118 135q39 108 39 192q0 33 -8 99t-8 99q0 47 45 129q38 71 78 116q-55 27 -98 106q-41 75 -41 135q0 43 6.5 204t6.5 204q0 197 -140 212q-34 1 -101 10q-71 16 -71 70z" />
<glyph unicode="~" horiz-adv-x="1224" d="M100 603q0 19 10 42q54 117 141 196q103 93 216 93q87 0 158 -71l110 -133q66 -74 137 -80q41 -3 79.5 120t100.5 123q38 0 64 -24.5t26 -62.5q1 -132 -80 -234q-82 -105 -193 -105t-203 75q-52 43 -123 139q-55 75 -76 75q-87 0 -197 -189q-29 -51 -77 -51 q-36 0 -64.5 25.5t-28.5 61.5z" />
<glyph unicode="&#xa1;" horiz-adv-x="487" d="M120 1516q0 36 28.5 62.5t65.5 26.5q39 0 80 -52q38 -49 38 -90q0 -36 -28.5 -62t-64.5 -26q-39 0 -80 52q-39 49 -39 89zM122 23v1112q0 90 89 90t89 -90q0 -40 2 -121.5t2 -121.5q0 -145 -2 -434.5t-2 -434.5q0 -89 -89 -89t-89 89z" />
<glyph unicode="&#xa2;" horiz-adv-x="1276" d="M125 873q0 189 121 362.5t300 225.5q-2 71 4 211q8 68 76 68q35 0 61.5 -25t26.5 -61l-2 -177q110 -11 204 -69q30 66 104 66q63 0 63 -65q0 -54 -31 -149q-36 -111 -76 -111q-17 0 -45 25q-77 70 -99 86q-57 40 -123 48q-4 -173 -21 -433l-28 -432q120 5 186 74l110 161 q34 48 72 48q34 0 60 -23.5t26 -57.5q0 -17 -7 -36q-131 -327 -450 -334l1 -57q0 -186 -92 -186q-84 0 -84 88q0 87 4 184q-210 70 -291 211q-70 122 -70 358zM291 873q0 -172 31 -242q40 -92 172 -151l49 801q-107 -52 -179.5 -170.5t-72.5 -237.5z" />
<glyph unicode="&#xa3;" horiz-adv-x="1625" d="M37 804q0 38 25 64t62 26q19 0 55.5 -2t54.5 -2l72 1q-2 28 -2 55q0 274 141 458q158 206 437 206q161 0 294 -69q161 -84 161 -229q0 -36 -28 -61t-65 -25q-51 0 -81 60q-45 89 -119 123q-63 28 -175 28q-193 0 -297 -152q-90 -133 -90 -339q0 -21 1 -42q150 12 231 12 q58 0 174 -6t174 -6q39 0 64 -25t25 -64t-25 -64t-64 -25q-58 0 -174 6t-174 6q-79 0 -203 -10q61 -266 61 -351q0 -124 -40 -231h27q97 2 233 -58t232 -60q170 0 224 70q18 24 37 130q13 71 84 71q90 0 90 -96q0 -53 -21 -119q-76 -234 -414 -234q-98 0 -237 59t-237 59 q-72 0 -158.5 -42t-100.5 -42q-35 0 -61 26.5t-26 61.5q0 30 49 81q66 67 91 114q50 88 50 210q0 88 -58 338q-73 -4 -151 -4q-148 0 -148 93z" />
<glyph unicode="&#xa4;" horiz-adv-x="1253" d="M56 319q0 32 24 63q69 73 194 230q-38 74 -38 162q0 54 18.5 102t54.5 90l-115 122q-79 89 -79 132q0 40 32 69.5t72 29.5q45 0 78 -42q70 -70 176 -199q39 14 88 21t108 7q24 0 56 -11t73 -33l171 105q135 81 163 81q40 0 69.5 -32t29.5 -72q0 -50 -48 -81 q-82 -54 -241 -147q17 -36 25 -79.5t8 -93.5q0 -46 -19 -96t-57 -104q62 -48 133 -122q93 -98 93 -140q0 -40 -31.5 -70.5t-71.5 -30.5q-39 0 -72 33l-93 100q-56 58 -103 90q-25 -9 -56.5 -14t-70.5 -5q-47 0 -101 20t-115 59l-177 -206q-33 -38 -75 -38q-40 0 -71.5 30 t-31.5 70zM435 774q0 -87 57 -139q54 -50 139 -50q66 0 110 60q36 50 36 98q0 83 -35.5 124t-106.5 41q-69 0 -131 -37q-69 -41 -69 -97z" />
<glyph unicode="&#xa5;" horiz-adv-x="1302" d="M133 1375q0 34 26.5 58.5t59.5 24.5q42 0 69 -41q83 -128 123 -207q52 -106 119 -215l123 -207q130 154 275 458q30 50 82 152q24 54 75 54q34 0 60.5 -23.5t26.5 -58.5q0 -29 -103 -214l-130 -233l111 13q83 0 83 -83q0 -84 -83 -84q-35 0 -103 -10t-101 -11 q-38 -46 -110 -144v-46q44 -2 120 -2q19 0 56.5 5.5t56.5 5.5q35 0 57.5 -25t22.5 -60q0 -66 -67 -81q-49 -11 -246 -3v-203q0 -29 4.5 -82.5t4.5 -81.5q0 -84 -82 -84q-83 0 -83 84q0 31 -3 94.5t-3 94.5v180q-72 7 -128 8q-170 2 -171 92q-2 80 103 80q17 0 47.5 -2 t41.5 -2q78 0 108 -3v36q-28 40 -91 140q-33 0 -223 20q-78 8 -78 83q0 78 84 78q56 0 119 -6q-253 434 -253 451z" />
<glyph unicode="&#xa6;" horiz-adv-x="828" d="M327 559q0 157 81 157q71 0 71 -75q0 -13 -1.5 -40.5t-1.5 -41.5q0 -88 7.5 -264t7.5 -264q0 -75 -75 -75t-75 75q0 88 -7 264t-7 264zM332 964q0 109 1.5 328t1.5 328q0 75 75 75q74 0 74 -75l-3 -456q2 -76 -2 -227q-4 -61 -76 -61q-71 0 -71 88z" />
<glyph unicode="&#xa7;" horiz-adv-x="1300" d="M117 338q0 90 89 90q59 0 83 -55l31 -105q61 -186 326 -186q111 0 184 42q90 52 90 155q0 136 -187 198l-348 112q-94 49 -141 129t-47 191q0 67 28.5 124.5t85.5 106.5q-48 78 -48 181q0 154 134 243q116 77 278 77q233 0 383 -160q34 -37 34 -74q0 -35 -24 -62.5 t-59 -27.5q-26 0 -133.5 79t-197.5 79q-78 0 -146 -36q-84 -43 -84 -117q0 -118 182 -209l292 -131q178 -107 178 -309q0 -48 -29 -97.5t-66 -58.5q93 -104 93 -238q0 -179 -140 -274q-122 -82 -313 -82q-230 0 -368 94q-160 109 -160 321zM375 909q0 -108 103 -169 q64 -38 224.5 -79t213.5 -72q1 7 6.5 33t5.5 42q0 108 -196 211l-291 139q-22 -9 -44 -44.5t-22 -60.5z" />
<glyph unicode="&#xa8;" horiz-adv-x="1139" d="M221 1287q0 29 37.5 57t73.5 28q131 0 131 -105q0 -30 -44 -58q-40 -25 -75 -25q-123 0 -123 103zM723 1279q0 69 45 89q25 12 103 12q34 0 69 -31.5t35 -61.5q0 -92 -143 -92q-41 0 -73 21q-36 24 -36 63z" />
<glyph unicode="&#xa9;" horiz-adv-x="1629" d="M90 911q0 272 248 490.5t565 218.5q289 0 458 -186q161 -177 161 -461q0 -248 -202 -475q-218 -244 -502 -247q-728 -8 -728 660zM268 911q0 -265 147 -380q131 -104 403 -102q221 1 382 201q143 177 143 363q0 198 -93 314q-104 130 -305 131q-301 2 -491 -148 q-186 -148 -186 -379zM418 944q0 157 159 270q146 104 309 104q56 0 97 -28q47 -32 47 -85q0 -77 -78 -77q-11 0 -30 5.5t-29 5.5q-114 0 -204 -55q-93 -58 -93 -140q0 -57 65 -96q57 -34 118 -34q74 0 151.5 61.5t98.5 61.5q37 0 64 -28.5t27 -64.5q0 -70 -113.5 -138 t-227.5 -70q-136 -3 -245 83q-116 91 -116 225z" />
<glyph unicode="&#xaa;" horiz-adv-x="1079" d="M101 1306q0 149 115 263t268 112q156 -1 187 -5q122 -16 160 -81q25 -24 30 -63l49 -538q2 -48 -28 -75.5t-71 -27.5q-95 0 -99 95l-5 90q-123 -167 -314 -167q-114 0 -208 148q-84 131 -84 249zM300 1306q0 -47 27 -115q31 -78 66 -78q116 1 185 114q59 97 71 252 l-178 4q-64 4 -117.5 -54.5t-53.5 -122.5z" />
<glyph unicode="&#xab;" horiz-adv-x="1183" d="M19 605q0 50 69 83q93 45 204 162q155 162 184.5 186.5t59.5 24.5q36 0 63.5 -27.5t27.5 -64.5q0 -34 -30 -64q-96 -102 -299 -291q56 -41 138 -127q97 -101 133 -132t36 -68t-27 -65t-63 -28q-28 0 -56 21q-40 29 -171 166q-100 105 -193 141q-76 28 -76 83zM473 583 q0 51 68 84q94 44 205 161q154 162 184 187t60 25q36 0 63.5 -28t27.5 -64q0 -34 -31 -65q-96 -102 -298 -291q56 -41 138 -126q96 -101 132 -132.5t36 -68.5q0 -36 -27 -64.5t-63 -28.5q-27 0 -55 21q-40 29 -172 167q-100 105 -193 140q-75 29 -75 83z" />
<glyph unicode="&#xac;" horiz-adv-x="984" d="M48 638q0 65 55 81q19 5 100 5q70 0 211.5 4t212.5 4q20 0 61 2.5t61 2.5q82 0 123 -23.5t41 -70.5q2 -43 -3 -153l-5 -153q0 -44 -22 -66.5t-67 -22.5q-89 0 -89 89l-1 115l-1 116q-376 -22 -522 -22q-155 0 -155 92z" />
<glyph unicode="&#xad;" horiz-adv-x="853" d="M111 539q0 78 84 78q79 0 237 7t237 7q89 0 89 -78q0 -69 -79 -78q-136 -14 -484 -14q-84 0 -84 78z" />
<glyph unicode="&#xae;" horiz-adv-x="1629" d="M91 844q0 367 209 572q218 215 629 215q261 0 439 -209q171 -200 171 -465q0 -328 -248 -547q-229 -203 -522 -203q-298 0 -481 159q-197 171 -197 478zM269 844q0 -231 145 -351q131 -108 355 -108q220 0 394 148q194 165 195 421q1 200 -121 346q-129 154 -325 154 q-321 0 -482 -152.5t-161 -457.5zM414 630q0 8 2 19l87 503q24 174 108 176q15 0 52.5 11.5t69.5 11.5q185 0 275 -26q162 -47 162 -184q0 -226 -319 -283q57 -66 73 -81q42 -39 93 -57q70 -25 70 -85q0 -37 -25 -64.5t-61 -27.5q-74 0 -143 55q-41 32 -115 118 q-72 82 -112 112q-11 -71 -40 -211q-19 -73 -86 -73q-37 0 -64 24.5t-27 61.5zM664 1011q156 20 191 29q136 34 136 100q-45 33 -221 33h-39q-28 0 -46 -5q-5 -52 -21 -157z" />
<glyph unicode="&#xaf;" horiz-adv-x="1284" d="M-35 1703v185q100 0 300 1.5t300 1.5q71 0 211.5 -5.5t211.5 -5.5l335 8v-185h-350q-71 0 -213 5t-213 5h-445q-23 0 -69 -5t-68 -5z" />
<glyph unicode="&#xb0;" horiz-adv-x="838" d="M68 1335q0 149 105 250q101 95 240 95q155 0 254 -104.5t99 -264.5q0 -142 -115 -242q-110 -95 -256 -95q-153 0 -244 109q-83 101 -83 252zM218 1335q0 -85 42 -144q49 -68 135 -68q84 0 151 52q71 56 71 136q0 98 -55.5 159t-148.5 61q-75 0 -133 -54q-62 -58 -62 -142 z" />
<glyph unicode="&#xb1;" horiz-adv-x="984" d="M48 -36q0 -92 155 -92q92 0 276 7t276 7q12 0 36 -4t36 -4q37 0 61.5 27.5t24.5 64.5q0 93 -164 93q-33 0 -98.5 -1t-98.5 -1q-65 0 -196 -5t-197 -5q-111 0 -111 -87zM48 638q0 64 51 80q21 6 104 6q54 0 171 7l-1 151q-1 164 94 164q37 0 64 -25t27 -62 q0 -18 -3.5 -54.5t-3.5 -55.5l1 -114l75 -3q20 0 61 2.5t61 2.5q164 0 164 -94q0 -37 -24.5 -64.5t-61.5 -27.5q-12 0 -36.5 4t-36.5 4l-100 -2q-61 -2 -100 0q2 -41 2 -78q0 -123 -6 -153q-19 -94 -95 -94q-79 0 -79 90l-1 116l-1 115q-118 -7 -171 -7q-155 0 -155 92z" />
<glyph unicode="&#xb2;" horiz-adv-x="1333" d="M381 1008q0 132 106 226l196 133q106 70 106 144q0 29 -38 65t-68 36q-69 0 -108 -41l-48 -78q-25 -41 -63 -41q-31 0 -54 20.5t-23 51.5q0 96 103 163q92 61 197 61q94 0 172.5 -73.5t78.5 -163.5q0 -129 -70 -207q-37 -42 -156 -115q-112 -68 -161 -133l84 -2l84 -2 q33 0 97.5 10t95.5 10t51.5 -23t20.5 -54q0 -92 -268 -92q-34 0 -100.5 2t-100.5 2q-53 0 -90 23q-44 28 -44 78z" />
<glyph unicode="&#xb3;" horiz-adv-x="1333" d="M414 952q0 31 22 54.5t52 23.5q10 0 54 -12.5t76 -12.5q54 0 106 15q74 23 74 63q0 101 -64 126l-118 14q-64 9 -64 70q0 56 104.5 83.5t104.5 89.5q0 85 -153 85q-14 0 -42 -8.5t-43 -8.5q-63 0 -63 59q0 52 50 82q43 26 98 26q123 0 206 -54q96 -64 96 -181 q0 -91 -58 -152q95 -69 95 -231q0 -114 -112 -177q-92 -51 -217 -51q-204 0 -204 97z" />
<glyph unicode="&#xb4;" horiz-adv-x="1139" d="M213 1279q0 34 31 65q43 42 131 159q66 86 147 143q27 19 53 19q36 0 63 -28.5t27 -64.5q0 -40 -38 -70q-70 -56 -135 -145q-68 -94 -129 -145q-28 -25 -59 -25q-36 0 -63.5 28t-27.5 64z" />
<glyph unicode="&#xb5;" horiz-adv-x="1065" d="M22 -315q0 23 77 240q82 228 92 287l11 136q18 173 49 319q35 162 96 312q35 87 114 87q82 0 82 -76q0 -38 -41 -155q-48 -138 -54 -168q-59 -271 -59 -437q0 -22 1 -40q29 -18 59 -27.5t61 -9.5q134 0 293 43l77 389q48 231 103 383q33 92 116 92q82 0 82 -73 q0 -26 -45 -190l-57 -213l-90 -432q-5 -45 -21 -134q-24 -98 -121 -98q-77 0 -78 95q-138 -65 -302 -65q-43 0 -80 6.5t-69 19.5l-113 -319q-26 -63 -85 -63q-39 0 -68.5 26t-29.5 65z" />
<glyph unicode="&#xb6;" horiz-adv-x="1421" d="M71 858q0 251 142 433q136 174 379 260l357 99q21 7 35 7q37 0 62 -28.5t25 -65.5q0 -64 -76 -86l3 -97q0 -377 -50 -793q-63 -524 -131 -724q-22 -59 -81 -59q-37 0 -65 24.5t-28 61.5q0 11 4 28q23 92 44 238l35 240q-33 -6 -64 -6q-224 0 -397 120q-194 134 -194 348z M249 858q0 -135 144 -219q122 -71 269 -71q42 0 102 20q57 327 57 688l-2 152q-266 -63 -402 -178q-168 -144 -168 -392zM918 -98q0 14 6 35q75 238 148 653q76 434 76 659q0 51 -15.5 151.5t-15.5 150.5q0 86 91 86q65 0 87 -77q31 -115 31 -311q0 -173 -87 -706 q-90 -560 -148 -668q-31 -59 -80 -59q-37 0 -65 25t-28 61z" />
<glyph unicode="&#xb7;" horiz-adv-x="510" d="M143 716q0 51 36 87.5t88 36.5q51 0 87.5 -36.5t36.5 -87.5t-36.5 -87.5t-87.5 -36.5q-52 0 -88 36.5t-36 87.5z" />
<glyph unicode="&#xb8;" horiz-adv-x="1139" d="M366 -298q0 54 68 54q36 0 81.5 -24.5t96.5 -24.5q49 1 73 24t24 68q0 60 -70 110q-56 40 -125 57q-65 15 -65 73q0 76 72 76q120 0 230 -95q114 -98 114 -216q0 -124 -60.5 -186.5t-181.5 -62.5q-85 0 -161 32q-96 42 -96 115z" />
<glyph unicode="&#xb9;" horiz-adv-x="1333" d="M402 979q0 44 40 54q10 2 76 2h86v453q-70 -43 -120 -43q-72 0 -72 68q0 57 56 77q26 10 118 76q81 58 108 58q45 0 56 -42q3 -12 3 -78v-569l45 1q81 2 98 0q62 -9 62 -54q0 -32 -21.5 -55.5t-53.5 -23.5h-408q-31 0 -52 22.5t-21 53.5z" />
<glyph unicode="&#xba;" horiz-adv-x="920" d="M40 1292q0 147 140 278.5t299 130.5q124 -1 256 -129q126 -123 126 -224q0 -228 -105.5 -342t-317.5 -114q-173 0 -292 136q-106 122 -106 264zM239 1292q0 -87 62.5 -152t148.5 -65q93 0 156 92q57 82 57 181q0 52 -59 97q-64 49 -153 49q-77 0 -144.5 -68.5 t-67.5 -133.5z" />
<glyph unicode="&#xbb;" horiz-adv-x="1183" d="M19 948q0 -34 31 -65q96 -102 298 -291q-56 -41 -137 -126q-97 -101 -133 -132.5t-36 -68.5q0 -36 27 -64.5t63 -28.5q27 0 55 21q40 29 172 167q100 105 193 140q75 29 75 83q0 51 -68 84q-94 44 -205 161q-154 162 -184 187t-60 25q-36 0 -63.5 -28t-27.5 -64zM473 969 q0 -34 31 -64q95 -102 298 -291q-56 -41 -138 -127q-97 -101 -132.5 -132t-35.5 -68t27 -65t63 -28q27 0 55 21q40 29 171 166q101 105 193 141q76 28 76 83q0 50 -69 83q-93 45 -204 162q-155 162 -184.5 186.5t-59.5 24.5q-36 0 -63.5 -27.5t-27.5 -64.5z" />
<glyph unicode="&#xbc;" horiz-adv-x="1333" d="M162 660q0 75 75 75q45 0 136 3t136 3l464 -14q57 1 167 -9q71 -13 71 -74q0 -75 -79 -75l-204 11q-212 11 -419 11q-45 0 -136 -3t-136 -3q-75 0 -75 75zM270 -35q0 47 43 91q67 67 178 202q117 144 175 204q38 40 94 40q30 0 54 -21.5t24 -51.5q0 -21 -12.5 -61.5 t-12.5 -61.5l4 -291l57 1q127 1 127 -73q0 -48 -65 -48q-23 0 -59 4l-58 7l2 -173q0 -75 -75 -75t-75 75l1 171l-323 -16q-79 0 -79 77zM402 979q0 44 40 54q10 2 76 2h86v453q-70 -43 -120 -43q-72 0 -72 68q0 57 56 77q26 10 118 76q81 58 108 58q45 0 56 -42q3 -12 3 -78 v-569l45 1q81 2 98 0q62 -9 62 -54q0 -32 -21.5 -55.5t-53.5 -23.5h-408q-31 0 -52 22.5t-21 53.5zM475 19q31 3 72 3l126 -4l2 225q-118 -137 -200 -224z" />
<glyph unicode="&#xbd;" horiz-adv-x="1333" d="M162 660q0 75 75 75q45 0 136 3t136 3l464 -14q57 1 167 -9q71 -13 71 -74q0 -75 -79 -75l-204 11q-212 11 -419 11q-45 0 -136 -3t-136 -3q-75 0 -75 75zM381 -253q0 132 106 226l196 133q106 70 106 144q0 29 -38 65t-68 36q-69 0 -108 -41l-48 -77q-25 -42 -63 -42 q-32 0 -54.5 20.5t-22.5 51.5q0 96 103 164q92 60 197 60q94 0 172.5 -73.5t78.5 -163.5q0 -129 -70 -207q-37 -42 -156 -115q-112 -68 -161 -133l84 -2l84 -2q33 0 97.5 10t95.5 10t51.5 -23t20.5 -54q0 -92 -268 -92q-33 0 -100 2t-101 2q-53 0 -90 23q-44 28 -44 78z M402 979q0 44 40 54q10 2 76 2h86v453q-70 -43 -120 -43q-72 0 -72 68q0 57 56 77q26 10 118 76q81 58 108 58q46 0 56 -45q3 -10 3 -82v-562l45 1q81 2 98 0q62 -9 62 -54q0 -32 -21.5 -55.5t-53.5 -23.5h-408q-31 0 -52 22.5t-21 53.5z" />
<glyph unicode="&#xbe;" horiz-adv-x="1333" d="M162 660q0 75 75 75q45 0 136 3t136 3q200 0 464 -14q57 -1 167 -9q71 -8 71 -74q0 -75 -79 -75l-204 11q-232 11 -419 11q-45 0 -136 -3t-136 -3q-75 0 -75 75zM270 -35q0 51 43 91q81 74 182 198l171 208q34 40 94 40q30 0 54 -21t24 -52q0 -15 -12.5 -55.5 t-12.5 -67.5l4 -291l48 1q136 1 136 -73q0 -48 -65 -48q-22 0 -59 4q-44 6 -58 7l2 -173q0 -75 -75 -75t-75 75l1 171l-323 -16q-79 0 -79 77zM414 952q0 31 22 54.5t52 23.5q10 0 54 -12.5t76 -12.5q54 0 106 15q74 23 74 63q0 101 -64 126l-118 14q-64 9 -64 70 q0 56 104.5 83.5t104.5 89.5q0 85 -153 85q-14 0 -42 -8.5t-43 -8.5q-63 0 -63 59q0 52 50 82q43 26 98 26q123 0 206 -54q96 -64 96 -181q0 -91 -58 -152q95 -69 95 -231q0 -114 -112 -177q-92 -51 -217 -51q-204 0 -204 97zM475 19q30 3 72 3l126 -4l2 225 q-118 -137 -200 -224z" />
<glyph unicode="&#xbf;" horiz-adv-x="1073" d="M52 441q0 146 94 259q56 68 208.5 177.5t212.5 178.5q35 41 75 41q41 0 72 -31t31 -72q0 -68 -128 -169l-239 -181q-129 -111 -129 -203q0 -116 109 -214q105 -95 223 -95q63 0 160 64.5t120 64.5q41 0 70.5 -33t29.5 -74q0 -79 -153 -157q-137 -69 -227 -69 q-201 0 -365 156.5t-164 356.5zM588 1326q0 55 26 100q32 52 83 52q44 0 79.5 -29.5t35.5 -72.5q0 -62 -33 -112q-37 -56 -95 -56q-96 0 -96 118z" />
<glyph unicode="&#xc0;" horiz-adv-x="1498" d="M131 78q0 48 151 365q-17 26 -17 60q0 81 98 104q114 214 288 492q237 379 295 379q79 0 108 -110l63 -336l149 -695l57 -158q29 -81 29 -108q0 -43 -31 -72t-71 -29q-92 0 -160 236q-26 90 -65 315q-102 -14 -267 -50l-266 -55q-50 -131 -171 -383q-32 -56 -87 -56 q-40 0 -71.5 29t-31.5 72zM611 652q121 31 367 75l-81 386zM671 2028q0 36 26.5 64.5t62.5 28.5q62 0 202 -166q137 -164 137 -228q0 -36 -28.5 -62.5t-64.5 -26.5q-43 0 -72 42l-100 149q-53 73 -124 128q-39 30 -39 71z" />
<glyph unicode="&#xc1;" horiz-adv-x="1498" d="M131 78q0 48 151 365q-17 26 -17 60q0 81 98 104q114 214 288 492q237 379 295 379q79 0 108 -110l63 -336l149 -695l57 -158q29 -81 29 -108q0 -43 -31 -72t-71 -29q-92 0 -160 236q-26 90 -65 315q-102 -14 -267 -50l-266 -55q-50 -131 -171 -383q-32 -56 -87 -56 q-40 0 -71.5 29t-31.5 72zM611 652q121 31 367 75l-81 386zM840 1722q0 34 31 65q43 42 131 159q66 86 147 143q27 19 53 19q36 0 63 -28.5t27 -64.5q0 -40 -38 -70q-70 -56 -135 -145q-68 -94 -129 -145q-28 -25 -59 -25q-36 0 -63.5 28t-27.5 64z" />
<glyph unicode="&#xc2;" horiz-adv-x="1498" d="M131 78q0 48 151 365q-17 26 -17 60q0 81 98 104q114 214 288 492q237 379 295 379q79 0 108 -110l63 -336l149 -695l57 -158q29 -81 29 -108q0 -43 -31 -72t-71 -29q-92 0 -160 236q-26 90 -65 315q-102 -14 -267 -50l-266 -55q-50 -131 -171 -383q-32 -56 -87 -56 q-40 0 -71.5 29t-31.5 72zM517 1658q0 35 30 65q56 54 305 336q27 31 61 31q55 0 132 -67q24 -21 109 -112l159 -170q26 -30 26 -61q0 -36 -27.5 -63.5t-64.5 -27.5q-33 0 -63 29q-80 90 -250 260q-254 -312 -326 -312q-36 0 -63.5 28t-27.5 64zM611 652q121 31 367 75 l-81 386z" />
<glyph unicode="&#xc3;" horiz-adv-x="1498" d="M131 78q0 48 151 365q-17 26 -17 60q0 81 98 104q114 214 288 492q237 379 295 379q79 0 108 -110l63 -336l149 -695l57 -158q29 -81 29 -108q0 -43 -31 -72t-71 -29q-92 0 -160 236q-26 90 -65 315q-102 -14 -267 -50l-266 -55q-50 -131 -171 -383q-32 -56 -87 -56 q-40 0 -71.5 29t-31.5 72zM521 1751q0 11 3 23q28 102 101 165q78 66 180 66q100 0 161 -58l83 -106q47 -58 112 -58q57 0 85 37l46 88l20 59q14 29 60 29q75 0 75 -74q0 -36 -43 -121q-40 -80 -69 -110q-56 -57 -143 -57q-131 0 -205 57q-27 21 -88 107q-42 57 -94 57 q-31 0 -55.5 -11.5t-42.5 -34.5l-44 -85q-25 -45 -65 -45q-31 0 -54 20.5t-23 51.5zM611 652q121 31 367 75l-81 386z" />
<glyph unicode="&#xc4;" horiz-adv-x="1498" d="M131 78q0 48 151 365q-17 26 -17 60q0 81 98 104q114 214 288 492q237 379 295 379q79 0 108 -110l63 -336l149 -695l57 -158q29 -81 29 -108q0 -43 -31 -72t-71 -29q-92 0 -160 236q-26 90 -65 315q-102 -14 -267 -50l-266 -55q-50 -131 -171 -383q-32 -56 -87 -56 q-40 0 -71.5 29t-31.5 72zM591 1737q0 29 37.5 57t73.5 28q131 0 131 -105q0 -30 -44 -58q-40 -25 -75 -25q-123 0 -123 103zM611 652q121 31 367 75l-81 386zM1093 1729q0 69 45 89q25 12 103 12q34 0 69 -31.5t35 -61.5q0 -92 -143 -92q-41 0 -73 21q-36 24 -36 63z" />
<glyph unicode="&#xc5;" horiz-adv-x="1498" d="M131 78q0 48 151 365q-17 26 -17 60q0 81 98 104q114 214 288 492q237 379 295 379q79 0 108 -110l63 -336l149 -695l57 -158q29 -81 29 -108q0 -43 -31 -72t-71 -29q-92 0 -160 236q-26 90 -65 315q-102 -14 -267 -50l-266 -55q-50 -131 -171 -383q-32 -56 -87 -56 q-40 0 -71.5 29t-31.5 72zM611 652q121 31 367 75l-81 386zM634 1692q0 145 103 229q99 80 260 80q125 0 214 -70q97 -77 97 -199q0 -148 -89.5 -224t-268.5 -79q-136 -2 -226 76q-90 77 -90 187zM784 1692q1 -46 61 -82t120 -34q86 3 126 24q67 36 67 132q0 58 -54 91 q-45 29 -107 29q-217 0 -213 -160z" />
<glyph unicode="&#xc6;" horiz-adv-x="2226" d="M46 111q0 27 19 57q311 508 539 774l272 346q180 219 316 282q34 16 70 16q42 0 72 -29q120 32 226.5 48t200.5 16q262 0 388 -58q67 -31 67 -96q0 -42 -28.5 -73.5t-69.5 -31.5q-12 0 -31 5q-187 48 -326 48q-82 0 -179 -15t-209 -46q9 -63 9 -104q0 -140 -17 -382 l438 42q186 20 237 20q45 0 74 -29.5t29 -74.5q0 -84 -91 -102l-238 -20l-462 -43q-9 -142 -9 -252q0 -226 32 -260q27 -28 157 -28q62 0 186.5 3.5t187.5 3.5q19 0 58 6t59 6q106 0 106 -103q0 -79 -85 -101t-216 -23l-218 2q-291 0 -381 97q-86 93 -86 397q0 114 9 263 q-106 -3 -272 -19l-272 -25q-87 -119 -257 -385l-121 -185q-33 -46 -80 -46q-40 0 -72 29.5t-32 69.5zM781 844q245 24 384 27q17 242 17 379q0 30 -5 68q-92 -84 -206 -230z" />
<glyph unicode="&#xc7;" horiz-adv-x="1234" d="M90 499q0 337 284 695q236 297 478 297q48 0 87.5 -4.5t69.5 -14.5q35 51 91 51q71 0 93 -116q10 -51 10 -174q0 -46 -26 -77q-28 -34 -73 -34q-63 0 -96 75q-30 66 -56 79q-19 10 -100 10q-145 0 -322 -222q-240 -299 -240 -565q0 -125 81 -219q84 -99 207 -99 q102 0 209 55q54 28 158 102q77 56 104 56q41 0 71 -32t30 -73q0 -77 -168 -179q-139 -84 -244 -112q54 -67 54 -140q0 -165 -140 -225q-93 -40 -283 -40q-130 0 -130 78q0 75 73 75q18 0 56 -2t57 -2q217 0 217 116q0 68 -106 109l-161 56q-142 83 -213.5 202t-71.5 274z " />
<glyph unicode="&#xc8;" horiz-adv-x="1279" d="M140 393q0 64 3 140t8 164q-11 23 -11 49q0 34 19 61q20 289 20 427q0 37 -10 108.5t-10 108.5q0 119 100 119q42 0 72 -29q120 32 226.5 48t200.5 16q243 0 388 -58q67 -27 67 -96q0 -40 -26 -71q-29 -34 -72 -34q-14 0 -31 5q-169 48 -326 48q-82 0 -179 -15t-209 -46 q9 -65 9 -104q0 -139 -17 -382l438 42q193 20 237 20t74 -28t30 -75q0 -91 -92 -102l-238 -21l-462 -42q-4 -71 -6.5 -134.5t-2.5 -118.5q0 -221 32 -260q24 -28 157 -28q62 0 186.5 3.5t187.5 3.5q20 0 59 6.5t58 6.5q106 0 106 -104q0 -84 -85 -101q-94 -19 -407 -19 q-310 0 -398 82q-96 89 -96 410zM527 2137q0 36 26.5 64.5t62.5 28.5q62 0 202 -166q137 -164 137 -228q0 -36 -28.5 -62.5t-64.5 -26.5q-43 0 -72 42l-100 149q-53 73 -124 128q-39 30 -39 71z" />
<glyph unicode="&#xc9;" horiz-adv-x="1279" d="M140 393q0 64 3 140t8 164q-11 23 -11 49q0 34 19 61q20 289 20 427q0 37 -10 108.5t-10 108.5q0 119 100 119q42 0 72 -29q120 32 226.5 48t200.5 16q243 0 388 -58q67 -27 67 -96q0 -40 -26 -71q-29 -34 -72 -34q-14 0 -31 5q-169 48 -326 48q-82 0 -179 -15t-209 -46 q9 -65 9 -104q0 -139 -17 -382l438 42q193 20 237 20t74 -28t30 -75q0 -91 -92 -102l-238 -21l-462 -42q-4 -71 -6.5 -134.5t-2.5 -118.5q0 -221 32 -260q24 -28 157 -28q62 0 186.5 3.5t187.5 3.5q20 0 59 6.5t58 6.5q106 0 106 -104q0 -84 -85 -101q-94 -19 -407 -19 q-310 0 -398 82q-96 89 -96 410zM656 1856q0 34 31 65q43 42 131 159q66 86 147 143q27 19 53 19q36 0 63 -28.5t27 -64.5q0 -40 -38 -70q-70 -56 -135 -145q-68 -94 -129 -145q-28 -25 -59 -25q-36 0 -63.5 28t-27.5 64z" />
<glyph unicode="&#xca;" horiz-adv-x="1279" d="M140 393q0 64 3 140t8 164q-11 23 -11 49q0 34 19 61q20 289 20 427q0 37 -10 108.5t-10 108.5q0 119 100 119q42 0 72 -29q120 32 226.5 48t200.5 16q243 0 388 -58q67 -27 67 -96q0 -40 -26 -71q-29 -34 -72 -34q-14 0 -31 5q-169 48 -326 48q-82 0 -179 -15t-209 -46 q9 -65 9 -104q0 -139 -17 -382l438 42q193 20 237 20t74 -28t30 -75q0 -91 -92 -102l-238 -21l-462 -42q-4 -71 -6.5 -134.5t-2.5 -118.5q0 -221 32 -260q24 -28 157 -28q62 0 186.5 3.5t187.5 3.5q20 0 59 6.5t58 6.5q106 0 106 -104q0 -84 -85 -101q-94 -19 -407 -19 q-310 0 -398 82q-96 89 -96 410zM355 1825q0 35 30 65q56 54 305 336q27 31 61 31q55 0 132 -67q24 -21 109 -112l159 -170q26 -30 26 -61q0 -36 -27.5 -63.5t-64.5 -27.5q-33 0 -63 29q-80 90 -250 260q-254 -312 -326 -312q-36 0 -63.5 28t-27.5 64z" />
<glyph unicode="&#xcb;" horiz-adv-x="1279" d="M140 393q0 64 3 140t8 164q-11 23 -11 49q0 34 19 61q20 289 20 427q0 37 -10 108.5t-10 108.5q0 119 100 119q42 0 72 -29q120 32 226.5 48t200.5 16q243 0 388 -58q67 -27 67 -96q0 -40 -26 -71q-29 -34 -72 -34q-14 0 -31 5q-169 48 -326 48q-82 0 -179 -15t-209 -46 q9 -65 9 -104q0 -139 -17 -382l438 42q193 20 237 20t74 -28t30 -75q0 -91 -92 -102l-238 -21l-462 -42q-4 -71 -6.5 -134.5t-2.5 -118.5q0 -221 32 -260q24 -28 157 -28q62 0 186.5 3.5t187.5 3.5q20 0 59 6.5t58 6.5q106 0 106 -104q0 -84 -85 -101q-94 -19 -407 -19 q-310 0 -398 82q-96 89 -96 410zM411 1855q0 29 37.5 57t73.5 28q131 0 131 -105q0 -30 -44 -58q-40 -25 -75 -25q-123 0 -123 103zM913 1847q0 69 45 89q25 12 103 12q34 0 69 -31.5t35 -61.5q0 -92 -143 -92q-41 0 -73 21q-36 24 -36 63z" />
<glyph unicode="&#xcc;" horiz-adv-x="1119" d="M75 1384q0 93 94 102q81 8 303 8q199 0 499 -43q89 -13 89 -107q0 -47 -34 -75q-30 -23 -69 -23q-64 0 -161 13l-161 21q-23 -291 -23 -556q0 -70 4 -173t4 -173q0 -94 -7 -171l315 4q42 0 70.5 -29.5t28.5 -72.5q0 -44 -28.5 -73.5t-70.5 -29.5q-56 0 -168 -2.5 t-168 -2.5q-66 0 -197.5 -18.5t-198.5 -18.5q-42 0 -70.5 29.5t-28.5 72.5t28.5 73t70.5 30q65 0 215 21q10 81 10 185q0 69 -6.5 168.5t-6.5 167.5q0 231 28 577l-130 -4l-130 -3q-43 0 -72 29t-29 74zM326 2068q0 36 26.5 64.5t62.5 28.5q62 0 202 -166q137 -164 137 -228 q0 -36 -28.5 -62.5t-64.5 -26.5q-43 0 -72 42l-100 149q-53 73 -124 128q-39 30 -39 71z" />
<glyph unicode="&#xcd;" horiz-adv-x="1119" d="M75 1384q0 93 94 102q81 8 303 8q199 0 499 -43q89 -13 89 -107q0 -47 -34 -75q-30 -23 -69 -23q-64 0 -161 13l-161 21q-23 -291 -23 -556q0 -70 4 -173t4 -173q0 -94 -7 -171l315 4q42 0 70.5 -29.5t28.5 -72.5q0 -44 -28.5 -73.5t-70.5 -29.5q-56 0 -168 -2.5 t-168 -2.5q-66 0 -197.5 -18.5t-198.5 -18.5q-42 0 -70.5 29.5t-28.5 72.5t28.5 73t70.5 30q65 0 215 21q10 81 10 185q0 69 -6.5 168.5t-6.5 167.5q0 231 28 577l-130 -4l-130 -3q-43 0 -72 29t-29 74zM433 1749q0 34 31 65q43 42 131 159q66 86 147 143q27 19 53 19 q36 0 63 -28.5t27 -64.5q0 -40 -38 -70q-70 -56 -135 -145q-68 -94 -129 -145q-28 -25 -59 -25q-36 0 -63.5 28t-27.5 64z" />
<glyph unicode="&#xce;" horiz-adv-x="1119" d="M75 1384q0 93 94 102q81 8 303 8q199 0 499 -43q89 -13 89 -107q0 -47 -34 -75q-30 -23 -69 -23q-64 0 -161 13l-161 21q-23 -291 -23 -556q0 -70 4 -173t4 -173q0 -94 -7 -171l315 4q42 0 70.5 -29.5t28.5 -72.5q0 -44 -28.5 -73.5t-70.5 -29.5q-56 0 -168 -2.5 t-168 -2.5q-66 0 -197.5 -18.5t-198.5 -18.5q-42 0 -70.5 29.5t-28.5 72.5t28.5 73t70.5 30q65 0 215 21q10 81 10 185q0 69 -6.5 168.5t-6.5 167.5q0 231 28 577l-130 -4l-130 -3q-43 0 -72 29t-29 74zM178 1745q0 35 30 65q56 54 305 336q27 31 61 31q55 0 132 -67 q24 -21 109 -112l159 -170q26 -30 26 -61q0 -36 -27.5 -63.5t-64.5 -27.5q-33 0 -63 29q-80 90 -250 260q-254 -312 -326 -312q-36 0 -63.5 28t-27.5 64z" />
<glyph unicode="&#xcf;" horiz-adv-x="1119" d="M75 1384q0 93 94 102q81 8 303 8q199 0 499 -43q89 -13 89 -107q0 -47 -34 -75q-30 -23 -69 -23q-64 0 -161 13l-161 21q-23 -291 -23 -556q0 -70 4 -173t4 -173q0 -94 -7 -171l315 4q42 0 70.5 -29.5t28.5 -72.5q0 -44 -28.5 -73.5t-70.5 -29.5q-56 0 -168 -2.5 t-168 -2.5q-66 0 -197.5 -18.5t-198.5 -18.5q-42 0 -70.5 29.5t-28.5 72.5t28.5 73t70.5 30q65 0 215 21q10 81 10 185q0 69 -6.5 168.5t-6.5 167.5q0 231 28 577l-130 -4l-130 -3q-43 0 -72 29t-29 74zM223 1757q0 29 37.5 57t73.5 28q131 0 131 -105q0 -30 -44 -58 q-40 -25 -75 -25q-123 0 -123 103zM725 1749q0 69 45 89q25 12 103 12q34 0 69 -31.5t35 -61.5q0 -92 -143 -92q-41 0 -73 21q-36 24 -36 63z" />
<glyph unicode="&#xd0;" horiz-adv-x="1478" d="M-44 695q0 102 149 102q18 0 51 -1.5t46 -1.5l-5 315l-4 316q0 42 42 86.5t84 44.5q24 0 160 -66q158 -77 178 -84q297 -109 490 -304q229 -232 229 -515q0 -171 -80 -327q-81 -159 -220 -253q-156 -106 -445 -106q-80 0 -176 25q-106 27 -161 68h-10q-101 0 -101 103 q0 97 7 249l10 249q-13 0 -45.5 -1.5t-50.5 -1.5q-148 0 -148 103zM387 174q132 -72 243 -72q227 0 332 70q98 66 155 178t57 232q0 189 -133 337q-104 117 -306 221q-54 29 -340 155l8 -501q43 0 130.5 -8.5t131.5 -8.5t72 -27.5t28 -71.5q0 -43 -28 -71t-71 -28 q-45 0 -133 8t-132 8z" />
<glyph unicode="&#xd1;" horiz-adv-x="1632" d="M123 1429q0 46 39.5 84t89.5 38q53 0 131 -116q249 -373 448 -620q237 -293 520 -560q3 43 0 127l-3 126q0 439 -34 699q-4 26 -27 105q-20 68 -20 106q0 116 106 116q174 0 174 -649q0 -111 -3 -331.5t-3 -331.5q0 -48 -16 -160q-16 -101 -107 -101q-55 0 -131 72 q-407 385 -934 1111l-5 -227l-3 -228q0 -83 3.5 -249t3.5 -250q0 -269 -104 -269q-55 0 -87 35q-29 31 -29 74q0 42 6.5 127t6.5 127q0 62 4 185.5t4 185.5q0 66 -3 199.5t-3 199.5q0 63 -12 187.5t-12 187.5zM371 1770q0 11 3 23q28 102 101 165q78 66 180 66 q100 0 161 -58l83 -106q47 -58 112 -58q57 0 85 37l46 88l20 59q14 29 60 29q75 0 75 -74q0 -36 -43 -121q-40 -80 -69 -110q-56 -57 -143 -57q-131 0 -205 57q-27 21 -88 107q-42 57 -94 57q-31 0 -55.5 -11.5t-42.5 -34.5l-44 -85q-25 -45 -65 -45q-31 0 -54 20.5 t-23 51.5z" />
<glyph unicode="&#xd2;" horiz-adv-x="1635" d="M116 572q0 346 205 629q229 314 571 314q329 0 489 -148q167 -154 167 -486q0 -346 -188 -624q-216 -318 -558 -318q-282 0 -478 169q-208 180 -208 464zM320 572q0 -193 143 -314q137 -114 339 -114q243 0 401 245q141 219 141 492q0 239 -107 336q-102 93 -345 93 q-245 0 -415 -244q-157 -224 -157 -494zM793 2038q0 36 26.5 64.5t62.5 28.5q62 0 202 -166q137 -164 137 -228q0 -36 -28.5 -62.5t-64.5 -26.5q-43 0 -72 42l-100 149q-53 73 -124 128q-39 30 -39 71z" />
<glyph unicode="&#xd3;" horiz-adv-x="1635" d="M116 572q0 346 205 629q229 314 571 314q329 0 489 -148q167 -154 167 -486q0 -346 -188 -624q-216 -318 -558 -318q-282 0 -478 169q-208 180 -208 464zM320 572q0 -193 143 -314q137 -114 339 -114q243 0 401 245q141 219 141 492q0 239 -107 336q-102 93 -345 93 q-245 0 -415 -244q-157 -224 -157 -494zM878 1729q0 34 31 65q43 42 131 159q66 86 147 143q27 19 53 19q36 0 63 -28.5t27 -64.5q0 -40 -38 -70q-70 -56 -135 -145q-68 -94 -129 -145q-28 -25 -59 -25q-36 0 -63.5 28t-27.5 64z" />
<glyph unicode="&#xd4;" horiz-adv-x="1635" d="M116 572q0 346 205 629q229 314 571 314q329 0 489 -148q167 -154 167 -486q0 -346 -188 -624q-216 -318 -558 -318q-282 0 -478 169q-208 180 -208 464zM320 572q0 -193 143 -314q137 -114 339 -114q243 0 401 245q141 219 141 492q0 239 -107 336q-102 93 -345 93 q-245 0 -415 -244q-157 -224 -157 -494zM584 1708q0 35 30 65q56 54 305 336q27 31 61 31q55 0 132 -67q24 -21 109 -112l159 -170q26 -30 26 -61q0 -36 -27.5 -63.5t-64.5 -27.5q-33 0 -63 29q-80 90 -250 260q-254 -312 -326 -312q-36 0 -63.5 28t-27.5 64z" />
<glyph unicode="&#xd5;" horiz-adv-x="1635" d="M116 572q0 346 205 629q229 314 571 314q329 0 489 -148q167 -154 167 -486q0 -346 -188 -624q-216 -318 -558 -318q-282 0 -478 169q-208 180 -208 464zM320 572q0 -193 143 -314q137 -114 339 -114q243 0 401 245q141 219 141 492q0 239 -107 336q-102 93 -345 93 q-245 0 -415 -244q-157 -224 -157 -494zM527 1753q0 11 3 23q28 102 101 165q78 66 180 66q100 0 161 -58l83 -106q47 -58 112 -58q57 0 85 37l46 88l20 59q14 29 60 29q75 0 75 -74q0 -36 -43 -121q-40 -80 -69 -110q-56 -57 -143 -57q-131 0 -205 57q-27 21 -88 107 q-42 57 -94 57q-31 0 -55.5 -11.5t-42.5 -34.5l-44 -85q-25 -45 -65 -45q-31 0 -54 20.5t-23 51.5z" />
<glyph unicode="&#xd6;" horiz-adv-x="1635" d="M116 572q0 346 205 629q229 314 571 314q329 0 489 -148q167 -154 167 -486q0 -346 -188 -624q-216 -318 -558 -318q-282 0 -478 169q-208 180 -208 464zM320 572q0 -193 143 -314q137 -114 339 -114q243 0 401 245q141 219 141 492q0 239 -107 336q-102 93 -345 93 q-245 0 -415 -244q-157 -224 -157 -494zM571 1763q0 29 37.5 57t73.5 28q131 0 131 -105q0 -30 -44 -58q-40 -25 -75 -25q-123 0 -123 103zM1073 1755q0 69 45 89q25 12 103 12q34 0 69 -31.5t35 -61.5q0 -92 -143 -92q-41 0 -73 21q-36 24 -36 63z" />
<glyph unicode="&#xd7;" horiz-adv-x="984" d="M67 885q0 41 29.5 72.5t69.5 31.5q68 0 286 -216q78 93 165 160q20 15 56 48q33 39 75 39q40 0 71.5 -30.5t31.5 -70.5q0 -49 -69 -108l-108 -88q-35 -36 -73 -85q69 -51 136 -124q90 -98 90 -153q0 -40 -22 -71q-25 -34 -63 -34q-73 0 -155 132q-30 49 -96 93 q-72 -89 -148 -186q-25 -71 -95 -71q-42 0 -71 26.5t-29 67.5q0 58 51 116q82 93 84 97q16 27 50 81q-71 71 -104 101q-60 55 -114 91q-48 32 -48 81z" />
<glyph unicode="&#xd8;" horiz-adv-x="1635" d="M83 2q0 25 70 103l94 101q-117 158 -117 366q0 351 209 633q229 310 567 310q299 0 458 -122q146 149 173 149q37 0 65.5 -26t28.5 -62q0 -38 -150 -197q81 -144 81 -376q0 -352 -192 -630q-216 -312 -554 -312q-261 0 -452 148l-92 -102q-69 -75 -95 -75 q-37 0 -65.5 27.5t-28.5 64.5zM334 572q0 -115 54 -209l414 442l418 437q-103 68 -314 68q-250 0 -420 -251q-152 -225 -152 -487zM507 236q131 -92 309 -92q250 0 407 253q135 219 135 484q0 132 -30 218q-115 -108 -275 -280l-266 -288z" />
<glyph unicode="&#xd9;" horiz-adv-x="1509" d="M155 1072q0 140 6 226q6 91 18 127q25 73 90 73q92 0 92 -169v-587q0 -606 424 -606q399 0 399 1020v98q-1 60 -1 80q0 62 22 109q28 60 83 60q100 0 100 -137q0 -41 1 -124v-124q0 -1158 -599 -1158q-311 0 -464 179q-124 144 -156 426q-15 127 -15 507zM499 2024 q0 36 26.5 64.5t62.5 28.5q62 0 202 -166q137 -164 137 -228q0 -36 -28.5 -62.5t-64.5 -26.5q-43 0 -72 42l-100 149q-53 73 -124 128q-39 30 -39 71z" />
<glyph unicode="&#xda;" horiz-adv-x="1509" d="M155 1072q0 140 6 226q6 91 18 127q25 73 90 73q92 0 92 -169v-587q0 -606 424 -606q399 0 399 1020v98q-1 60 -1 80q0 62 22 109q28 60 83 60q100 0 100 -137q0 -41 1 -124v-124q0 -1158 -599 -1158q-311 0 -464 179q-124 144 -156 426q-15 127 -15 507zM676 1735 q0 34 31 65q43 42 131 159q66 86 147 143q27 19 53 19q36 0 63 -28.5t27 -64.5q0 -40 -38 -70q-70 -56 -135 -145q-68 -94 -129 -145q-28 -25 -59 -25q-36 0 -63.5 28t-27.5 64z" />
<glyph unicode="&#xdb;" horiz-adv-x="1509" d="M155 1072q0 140 6 226q6 91 18 127q25 73 90 73q92 0 92 -169v-587q0 -606 424 -606q399 0 399 1020v98q-1 60 -1 80q0 62 22 109q28 60 83 60q100 0 100 -137q0 -41 1 -124v-124q0 -1158 -599 -1158q-311 0 -464 179q-124 144 -156 426q-15 127 -15 507zM422 1714 q0 35 30 65q56 54 305 336q27 31 61 31q55 0 132 -67q24 -21 109 -112l159 -170q26 -30 26 -61q0 -36 -27.5 -63.5t-64.5 -27.5q-33 0 -63 29q-80 90 -250 260q-254 -312 -326 -312q-36 0 -63.5 28t-27.5 64z" />
<glyph unicode="&#xdc;" horiz-adv-x="1509" d="M155 1072q0 140 6 226q6 91 18 127q25 73 90 73q92 0 92 -169v-587q0 -606 424 -606q399 0 399 1020v98q-1 60 -1 80q0 62 22 109q28 60 83 60q100 0 100 -137q0 -41 1 -124v-124q0 -1158 -599 -1158q-311 0 -464 179q-124 144 -156 426q-15 127 -15 507zM460 1740 q0 29 37.5 57t73.5 28q131 0 131 -105q0 -30 -44 -58q-40 -25 -75 -25q-123 0 -123 103zM962 1732q0 69 45 89q25 12 103 12q34 0 69 -31.5t35 -61.5q0 -92 -143 -92q-41 0 -73 21q-36 24 -36 63z" />
<glyph unicode="&#xdd;" horiz-adv-x="1301" d="M29 1419q0 43 31.5 72.5t71.5 29.5q49 0 82 -47l80 -124q106 -157 140 -214q75 -123 117 -228q33 -83 141 -227l229 558q39 69 108 213q28 68 93 68q40 0 71.5 -28t31.5 -72q0 -46 -53 -141q-24 -38 -64 -117l-172 -425q-100 -239 -188 -418l-125 -223l-53 -108 q-33 -58 -89 -58q-39 0 -71 29t-32 72q0 34 94 213l123 225q-179 231 -232 364q-45 113 -150 271q-144 216 -169 261q-15 27 -15 54zM575 1820q0 34 31 65q43 42 131 159q66 86 147 143q27 19 53 19q36 0 63 -28.5t27 -64.5q0 -40 -38 -70q-70 -56 -135 -145 q-68 -94 -129 -145q-28 -25 -59 -25q-36 0 -63.5 28t-27.5 64z" />
<glyph unicode="&#xde;" horiz-adv-x="1066" d="M100 71v294q0 147 18 414q20 289 22 414v138q0 99 12 144q21 77 98 76q79 -1 79 -126q0 -28 -4 -54v-21l167 8q150 7 311 -93q208 -131 208 -363q0 -248 -188 -395q-168 -131 -404 -131q-37 0 -134 16l-2 -321q0 -40 -26 -67.5t-65 -27.5q-40 0 -66 27.5t-26 67.5z M290 583q103 -17 129 -17q168 0 283 85q126 94 126 251q0 112 -120 193q-111 74 -239 74h-146z" />
<glyph unicode="&#xdf;" horiz-adv-x="908" d="M46 -66q0 7 2 20q20 137 20 264q0 53 5 159t5 159q0 39 -1 116.5t-1 115.5q0 347 58 517q97 285 372 285q162 0 254 -126q81 -112 81 -280q0 -145 -206 -349q125 -85 187.5 -220.5t62.5 -320.5q0 -174 -85 -261t-255 -87q-90 0 -160 46q-80 53 -80 138q0 77 65 77 q30 0 79.5 -36.5t90.5 -36.5q83 0 118 31q39 34 39 118q0 191 -78 306q-40 58 -145 136q-78 58 -78 108q0 43 63 103l117 110q63 72 63 144q0 105 -34 157t-103 52q-100 0 -158.5 -95.5t-75.5 -286.5q-18 -209 -18 -451q0 -61 3.5 -183t3.5 -184q0 -154 -8 -201 q-22 -135 -105 -135q-40 0 -69 26t-29 65z" />
<glyph unicode="&#xe0;" horiz-adv-x="1048" d="M66 458q0 242 166.5 414t397.5 172q87 0 195 -45q136 -56 136 -135q0 -27 -20 -48q-10 -38 -15.5 -125t-6.5 -223q-1 -124 17 -196q10 -44 63 -176q7 -18 23 -53l6 -17q0 -40 -28 -66t-65 -26q-19 0 -69 44q-45 41 -67 73q-96 -52 -169 -78.5t-122 -26.5q-234 0 -341 132 q-101 124 -101 380zM263 449q0 -164 58 -246t174 -82q96 0 163 35q36 19 101 76q-32 265 -32 397q0 43 5.5 93.5t16.5 107.5q-37 19 -63.5 28t-42.5 9q-155 0 -267.5 -126.5t-112.5 -291.5zM320 1561q0 36 26.5 64.5t62.5 28.5q62 0 202 -166q137 -164 137 -228 q0 -36 -28.5 -62.5t-64.5 -26.5q-43 0 -72 42l-100 149q-53 73 -124 128q-39 30 -39 71z" />
<glyph unicode="&#xe1;" horiz-adv-x="1048" d="M66 458q0 242 166.5 414t397.5 172q87 0 195 -45q136 -56 136 -135q0 -27 -20 -48q-10 -38 -15.5 -125t-6.5 -223q-1 -124 17 -196q10 -44 63 -176q7 -18 23 -53l6 -17q0 -40 -28 -66t-65 -26q-19 0 -69 44q-45 41 -67 73q-96 -52 -169 -78.5t-122 -26.5q-234 0 -341 132 q-101 124 -101 380zM263 449q0 -164 58 -246t174 -82q96 0 163 35q36 19 101 76q-32 265 -32 397q0 43 5.5 93.5t16.5 107.5q-37 19 -63.5 28t-42.5 9q-155 0 -267.5 -126.5t-112.5 -291.5zM492 1279q0 34 31 65q43 42 131 159q66 86 147 143q27 19 53 19q36 0 63 -28.5 t27 -64.5q0 -40 -38 -70q-70 -56 -135 -145q-68 -94 -129 -145q-28 -25 -59 -25q-36 0 -63.5 28t-27.5 64z" />
<glyph unicode="&#xe2;" horiz-adv-x="1048" d="M66 458q0 242 166.5 414t397.5 172q87 0 195 -45q136 -56 136 -135q0 -27 -20 -48q-10 -38 -15.5 -125t-6.5 -223q-1 -124 17 -196q10 -44 63 -176q7 -18 23 -53l6 -17q0 -40 -28 -66t-65 -26q-19 0 -69 44q-45 41 -67 73q-96 -52 -169 -78.5t-122 -26.5q-234 0 -341 132 q-101 124 -101 380zM163 1266q0 35 30 65q56 54 305 336q27 31 61 31q55 0 132 -67q24 -21 109 -112l159 -170q26 -30 26 -61q0 -36 -27.5 -63.5t-64.5 -27.5q-33 0 -63 29q-80 90 -250 260q-254 -312 -326 -312q-36 0 -63.5 28t-27.5 64zM263 449q0 -164 58 -246t174 -82 q96 0 163 35q36 19 101 76q-32 265 -32 397q0 43 5.5 93.5t16.5 107.5q-37 19 -63.5 28t-42.5 9q-155 0 -267.5 -126.5t-112.5 -291.5z" />
<glyph unicode="&#xe3;" horiz-adv-x="1048" d="M66 458q0 242 166.5 414t397.5 172q87 0 195 -45q136 -56 136 -135q0 -27 -20 -48q-10 -38 -15.5 -125t-6.5 -223q-1 -124 17 -196q10 -44 63 -176q7 -18 23 -53l6 -17q0 -40 -28 -66t-65 -26q-19 0 -69 44q-45 41 -67 73q-96 -52 -169 -78.5t-122 -26.5q-234 0 -341 132 q-101 124 -101 380zM141 1280q0 11 3 23q28 102 101 165q78 66 180 66q100 0 161 -58l83 -106q47 -58 112 -58q57 0 85 37l46 88l20 59q14 29 60 29q75 0 75 -74q0 -36 -43 -121q-40 -80 -69 -110q-56 -57 -143 -57q-131 0 -205 57q-27 21 -88 107q-42 57 -94 57 q-31 0 -55.5 -11.5t-42.5 -34.5l-44 -85q-25 -45 -65 -45q-31 0 -54 20.5t-23 51.5zM263 449q0 -164 58 -246t174 -82q96 0 163 35q36 19 101 76q-32 265 -32 397q0 43 5.5 93.5t16.5 107.5q-37 19 -63.5 28t-42.5 9q-155 0 -267.5 -126.5t-112.5 -291.5z" />
<glyph unicode="&#xe4;" horiz-adv-x="1048" d="M66 458q0 242 166.5 414t397.5 172q87 0 195 -45q136 -56 136 -135q0 -27 -20 -48q-10 -38 -15.5 -125t-6.5 -223q-1 -124 17 -196q10 -44 63 -176q7 -18 23 -53l6 -17q0 -40 -28 -66t-65 -26q-19 0 -69 44q-45 41 -67 73q-96 -52 -169 -78.5t-122 -26.5q-234 0 -341 132 q-101 124 -101 380zM234 1287q0 29 37.5 57t73.5 28q131 0 131 -105q0 -30 -44 -58q-40 -25 -75 -25q-123 0 -123 103zM263 449q0 -164 58 -246t174 -82q96 0 163 35q36 19 101 76q-32 265 -32 397q0 43 5.5 93.5t16.5 107.5q-37 19 -63.5 28t-42.5 9q-155 0 -267.5 -126.5 t-112.5 -291.5zM736 1279q0 69 45 89q25 12 103 12q34 0 69 -31.5t35 -61.5q0 -92 -143 -92q-41 0 -73 21q-36 24 -36 63z" />
<glyph unicode="&#xe5;" horiz-adv-x="1048" d="M66 458q0 242 166.5 414t397.5 172q87 0 195 -45q136 -56 136 -135q0 -27 -20 -48q-10 -38 -15.5 -125t-6.5 -223q-1 -124 17 -196q10 -44 63 -176q7 -18 23 -53l6 -17q0 -40 -28 -66t-65 -26q-19 0 -69 44q-45 41 -67 73q-96 -52 -169 -78.5t-122 -26.5q-234 0 -341 132 q-101 124 -101 380zM263 449q0 -164 58 -246t174 -82q96 0 163 35q36 19 101 76q-32 265 -32 397q0 43 5.5 93.5t16.5 107.5q-37 19 -63.5 28t-42.5 9q-155 0 -267.5 -126.5t-112.5 -291.5zM279 1449q0 145 103 229q99 80 260 80q125 0 214 -70q97 -77 97 -199 q0 -148 -89.5 -224t-268.5 -79q-136 -2 -226 76q-90 77 -90 187zM429 1449q1 -46 61 -82t120 -34q86 3 126 24q67 36 67 132q0 58 -54 91q-45 29 -107 29q-217 0 -213 -160z" />
<glyph unicode="&#xe6;" horiz-adv-x="1867" d="M67 460q0 235 179 405q175 167 412 167q103 0 242 -49q32 -11 39 -113q56 82 156 130q94 45 194 45q160 0 265 -53q135 -70 135 -215q0 -102 -117 -185q-47 -33 -208 -109l-382 -181q112 -167 334 -167q81 0 169 27q105 32 145 85.5t73 53.5q35 0 62.5 -26.5t27.5 -61.5 q0 -116 -188 -195q-153 -64 -289 -64q-232 0 -339 113q5 -20 10 -68q4 -41 -77 -41q-53 0 -75 26q-13 15 -29 70q-42 -40 -114 -71q-76 -32 -136 -32q-217 0 -355 147q-134 143 -134 362zM263 448q0 -126 86 -228q91 -107 215 -107q67 0 123.5 25.5t102.5 76.5 q-22 126 -22 168q0 281 22 445l-70 35q-19 7 -77 7q-158 0 -272 -134q-108 -127 -108 -288zM965 486l292 133q173 82 273 166q-86 80 -241 80q-245 0 -324 -379z" />
<glyph unicode="&#xe7;" horiz-adv-x="1052" d="M105 404q0 203 135 419q150 240 338 240q98 0 219 -46q153 -59 153 -144q0 -38 -25 -67.5t-62 -29.5q-29 0 -50.5 17.5t-41.5 34.5q-59 47 -193 47q-102 0 -202 -182q-91 -167 -91 -289q0 -132 90 -208q84 -71 216 -71q60 0 128 32l116 62q30 16 43 16q37 0 64 -29.5 t27 -67.5q0 -103 -256 -178q29 -38 43 -77t14 -79q0 -124 -60.5 -186.5t-181.5 -62.5q-85 0 -161 32q-96 42 -96 115q0 54 68 54q36 0 81.5 -24.5t96.5 -24.5q49 1 73 24t24 68q0 48 -37.5 86t-113.5 67q-159 36 -255 152q-103 123 -103 300z" />
<glyph unicode="&#xe8;" horiz-adv-x="1122" d="M87 417q0 260 126 436q137 192 366 192q166 0 271 -56q129 -69 129 -212q0 -100 -113 -182q-50 -36 -212 -112l-382 -181q56 -83 139.5 -125t194.5 -42q69 0 162 26q118 33 152 86.5t73 53.5q35 0 62.5 -26.5t27.5 -61.5q0 -111 -179 -191q-153 -68 -298 -68 q-226 0 -366 113q-153 125 -153 350zM255 486l307 146q181 88 258 153q-86 80 -241 80q-122 0 -203 -94.5t-121 -284.5zM307 1568q0 36 26.5 64.5t62.5 28.5q62 0 202 -166q137 -164 137 -228q0 -36 -28.5 -62.5t-64.5 -26.5q-43 0 -72 42l-100 149q-53 73 -124 128 q-39 30 -39 71z" />
<glyph unicode="&#xe9;" horiz-adv-x="1122" d="M87 417q0 260 126 436q137 192 366 192q166 0 271 -56q129 -69 129 -212q0 -100 -113 -182q-50 -36 -212 -112l-382 -181q56 -83 139.5 -125t194.5 -42q69 0 162 26q118 33 152 86.5t73 53.5q35 0 62.5 -26.5t27.5 -61.5q0 -111 -179 -191q-153 -68 -298 -68 q-226 0 -366 113q-153 125 -153 350zM255 486l307 146q181 88 258 153q-86 80 -241 80q-122 0 -203 -94.5t-121 -284.5zM504 1279q0 34 31 65q43 42 131 159q66 86 147 143q27 19 53 19q36 0 63 -28.5t27 -64.5q0 -40 -38 -70q-70 -56 -135 -145q-68 -94 -129 -145 q-28 -25 -59 -25q-36 0 -63.5 28t-27.5 64z" />
<glyph unicode="&#xea;" horiz-adv-x="1122" d="M87 417q0 260 126 436q137 192 366 192q166 0 271 -56q129 -69 129 -212q0 -100 -113 -182q-50 -36 -212 -112l-382 -181q56 -83 139.5 -125t194.5 -42q69 0 162 26q118 33 152 86.5t73 53.5q35 0 62.5 -26.5t27.5 -61.5q0 -111 -179 -191q-153 -68 -298 -68 q-226 0 -366 113q-153 125 -153 350zM189 1258q0 35 30 65q56 54 305 336q27 31 61 31q55 0 132 -67q24 -21 109 -112l159 -170q26 -30 26 -61q0 -36 -27.5 -63.5t-64.5 -27.5q-33 0 -63 29q-80 90 -250 260q-254 -312 -326 -312q-36 0 -63.5 28t-27.5 64zM255 486l307 146 q181 88 258 153q-86 80 -241 80q-122 0 -203 -94.5t-121 -284.5z" />
<glyph unicode="&#xeb;" horiz-adv-x="1122" d="M87 417q0 260 126 436q137 192 366 192q166 0 271 -56q129 -69 129 -212q0 -100 -113 -182q-50 -36 -212 -112l-382 -181q56 -83 139.5 -125t194.5 -42q69 0 162 26q118 33 152 86.5t73 53.5q35 0 62.5 -26.5t27.5 -61.5q0 -111 -179 -191q-153 -68 -298 -68 q-226 0 -366 113q-153 125 -153 350zM255 486l307 146q181 88 258 153q-86 80 -241 80q-122 0 -203 -94.5t-121 -284.5zM267 1384q0 29 37.5 57t73.5 28q131 0 131 -105q0 -30 -44 -58q-40 -25 -75 -25q-123 0 -123 103zM769 1376q0 69 45 89q25 12 103 12q34 0 69 -31.5 t35 -61.5q0 -92 -143 -92q-41 0 -73 21q-36 24 -36 63z" />
<glyph unicode="&#xec;" horiz-adv-x="574" d="M25 1568q0 36 26.5 64.5t62.5 28.5q62 0 202 -166q137 -164 137 -228q0 -36 -28.5 -62.5t-64.5 -26.5q-43 0 -72 42l-100 149q-53 73 -124 128q-39 30 -39 71zM179 454q0 94 10 234.5t10 234.5q0 45 27.5 73t70.5 28t70.5 -28t27.5 -73q0 -94 -10 -234.5t-10 -234.5 q0 -60 3.5 -179.5t3.5 -179.5q0 -44 -27 -72t-71 -28q-43 0 -70.5 28t-27.5 72q0 60 -3.5 179.5t-3.5 179.5z" />
<glyph unicode="&#xed;" horiz-adv-x="574" d="M96 1279q0 34 31 65q43 42 131 159q66 86 147 143q27 19 53 19q36 0 63 -28.5t27 -64.5q0 -40 -38 -70q-70 -56 -135 -145q-68 -94 -129 -145q-28 -25 -59 -25q-36 0 -63.5 28t-27.5 64zM179 454q0 94 10 234.5t10 234.5q0 45 27.5 73t70.5 28t70.5 -28t27.5 -73 q0 -94 -10 -234.5t-10 -234.5q0 -60 3.5 -179.5t3.5 -179.5q0 -44 -27 -72t-71 -28q-43 0 -70.5 28t-27.5 72q0 60 -3.5 179.5t-3.5 179.5z" />
<glyph unicode="&#xee;" horiz-adv-x="574" d="M-142 1208q0 35 30 65q56 54 305 336q27 31 61 31q55 0 132 -67q24 -21 109 -112l159 -170q26 -30 26 -61q0 -36 -27.5 -63.5t-64.5 -27.5q-33 0 -63 29q-80 90 -250 260q-254 -312 -326 -312q-36 0 -63.5 28t-27.5 64zM179 454q0 94 10 234.5t10 234.5q0 45 27.5 73 t70.5 28t70.5 -28t27.5 -73q0 -94 -10 -234.5t-10 -234.5q0 -60 3.5 -179.5t3.5 -179.5q0 -44 -27 -72t-71 -28q-43 0 -70.5 28t-27.5 72q0 60 -3.5 179.5t-3.5 179.5z" />
<glyph unicode="&#xef;" horiz-adv-x="574" d="M-122 1287q0 29 37.5 57t73.5 28q131 0 131 -105q0 -30 -44 -58q-40 -25 -75 -25q-123 0 -123 103zM179 454q0 94 10 234.5t10 234.5q0 45 27.5 73t70.5 28t70.5 -28t27.5 -73q0 -94 -10 -234.5t-10 -234.5q0 -60 3.5 -179.5t3.5 -179.5q0 -44 -27 -72t-71 -28 q-43 0 -70.5 28t-27.5 72q0 60 -3.5 179.5t-3.5 179.5zM380 1279q0 69 45 89q25 12 103 12q34 0 69 -31.5t35 -61.5q0 -92 -143 -92q-41 0 -73 21q-36 24 -36 63z" />
<glyph unicode="&#xf0;" horiz-adv-x="1042" d="M185 359q0 212 149 372q142 152 355 193q-53 113 -112 205l-117 -71q-93 -54 -120 -54q-38 0 -65.5 30t-27.5 69q0 45 47 78q26 18 165 99l-91 75q-59 51 -59 91q0 36 27.5 64t63.5 28q61 0 208 -174q174 91 238 91q41 0 67.5 -26.5t26.5 -67.5q0 -35 -29 -57l-65 -37 l-122 -56q267 -389 267 -666q0 -239 -95 -396q-115 -190 -339 -190q-151 0 -263 126q-109 121 -109 274zM364 359q0 -78 56 -148q60 -74 137 -74q144 0 208 141q48 104 48 267q0 57 -57 218q-53 -13 -157 -46q-235 -93 -235 -358z" />
<glyph unicode="&#xf1;" horiz-adv-x="1072" d="M124 233q0 103 14.5 285.5t14.5 285.5q0 32 -3.5 95t-3.5 95q0 43 28.5 70.5t70.5 27.5q92 0 101 -130l3 -117q168 224 345 224q160 0 223 -141q43 -94 47 -278v-101l-1 -93q0 -83 21.5 -214.5t21.5 -213.5q0 -44 -28.5 -71.5t-71.5 -27.5q-86 0 -97 94l-28 219 q-14 117 -14 219q0 28 3.5 95t3.5 95q0 216 -80 216q-112 0 -214 -133q-92 -121 -144 -306q-2 -39 -9 -98q-6 -50 -6 -97q0 -30 6 -90t6 -90q0 -45 -27.5 -73t-70.5 -28q-44 0 -71 28t-27 73q0 30 -6.5 90t-6.5 90zM148 1300q0 11 3 23q28 102 101 165q78 66 180 66 q100 0 161 -58l83 -106q47 -58 112 -58q57 0 85 37l46 88l20 59q14 29 60 29q75 0 75 -74q0 -36 -43 -121q-40 -80 -69 -110q-56 -57 -143 -57q-131 0 -205 57q-27 21 -88 107q-42 57 -94 57q-31 0 -55.5 -11.5t-42.5 -34.5l-44 -85q-25 -45 -65 -45q-31 0 -54 20.5 t-23 51.5z" />
<glyph unicode="&#xf2;" horiz-adv-x="1077" d="M89 436q-6 226 114 398q140 203 390 203q200 0 303 -183q82 -148 79 -356q-3 -222 -116 -379q-128 -178 -339 -178q-168 0 -289 124q-135 138 -142 371zM286 436q0 -145 79 -226q66 -67 155 -67q104 0 179 76q85 84 90 227q14 387 -209 388q-147 1 -229 -140 q-65 -113 -65 -258zM380 1568q0 36 26.5 64.5t62.5 28.5q62 0 202 -166q137 -164 137 -228q0 -36 -28.5 -62.5t-64.5 -26.5q-43 0 -72 42l-100 149q-53 73 -124 128q-39 30 -39 71z" />
<glyph unicode="&#xf3;" horiz-adv-x="1077" d="M89 436q-6 226 114 398q140 203 390 203q200 0 303 -183q82 -148 79 -356q-3 -222 -116 -379q-128 -178 -339 -178q-168 0 -289 124q-135 138 -142 371zM286 436q0 -145 79 -226q66 -67 155 -67q104 0 179 76q85 84 90 227q14 387 -209 388q-147 1 -229 -140 q-65 -113 -65 -258zM491 1279q0 34 31 65q43 42 131 159q66 86 147 143q27 19 53 19q36 0 63 -28.5t27 -64.5q0 -40 -38 -70q-70 -56 -135 -145q-68 -94 -129 -145q-28 -25 -59 -25q-36 0 -63.5 28t-27.5 64z" />
<glyph unicode="&#xf4;" horiz-adv-x="1077" d="M89 436q-6 226 114 398q140 203 390 203q200 0 303 -183q82 -148 79 -356q-3 -222 -116 -379q-128 -178 -339 -178q-168 0 -289 124q-135 138 -142 371zM172 1258q0 35 30 65q56 54 305 336q27 31 61 31q55 0 132 -67q24 -21 109 -112l159 -170q26 -30 26 -61 q0 -36 -27.5 -63.5t-64.5 -27.5q-33 0 -63 29q-80 90 -250 260q-254 -312 -326 -312q-36 0 -63.5 28t-27.5 64zM286 436q0 -145 79 -226q66 -67 155 -67q104 0 179 76q85 84 90 227q14 387 -209 388q-147 1 -229 -140q-65 -113 -65 -258z" />
<glyph unicode="&#xf5;" horiz-adv-x="1077" d="M89 436q-6 226 114 398q140 203 390 203q200 0 303 -183q82 -148 79 -356q-3 -222 -116 -379q-128 -178 -339 -178q-168 0 -289 124q-135 138 -142 371zM167 1300q0 11 3 23q28 102 101 165q78 66 180 66q100 0 161 -58l83 -106q47 -58 112 -58q57 0 85 37l46 88l20 59 q14 29 60 29q75 0 75 -74q0 -36 -43 -121q-40 -80 -69 -110q-56 -57 -143 -57q-131 0 -205 57q-27 21 -88 107q-42 57 -94 57q-31 0 -55.5 -11.5t-42.5 -34.5l-44 -85q-25 -45 -65 -45q-31 0 -54 20.5t-23 51.5zM286 436q0 -145 79 -226q66 -67 155 -67q104 0 179 76 q85 84 90 227q14 387 -209 388q-147 1 -229 -140q-65 -113 -65 -258z" />
<glyph unicode="&#xf6;" horiz-adv-x="1077" d="M89 436q-6 226 114 398q140 203 390 203q200 0 303 -183q82 -148 79 -356q-3 -222 -116 -379q-128 -178 -339 -178q-168 0 -289 124q-135 138 -142 371zM265 1287q0 29 37.5 57t73.5 28q131 0 131 -105q0 -30 -44 -58q-40 -25 -75 -25q-123 0 -123 103zM286 436 q0 -145 79 -226q66 -67 155 -67q104 0 179 76q85 84 90 227q14 387 -209 388q-147 1 -229 -140q-65 -113 -65 -258zM767 1279q0 69 45 89q25 12 103 12q34 0 69 -31.5t35 -61.5q0 -92 -143 -92q-41 0 -73 21q-36 24 -36 63z" />
<glyph unicode="&#xf7;" horiz-adv-x="984" d="M48 638q0 63 51 79q22 7 104 7q58 0 175 6.5t176 6.5q12 0 36.5 -2.5t36.5 -2.5q20 0 61 2.5t61 2.5q164 0 164 -94q0 -37 -25 -64.5t-61 -27.5q-12 0 -36 4t-37 4q-92 0 -275.5 -6.5t-275.5 -6.5q-155 0 -155 92zM361 1051q0 89 92 89q89 0 89 -89t-91 -89q-90 0 -90 89 zM380 276q0 37 26 63.5t63 26.5t63 -26.5t26 -63.5q0 -36 -26 -62.5t-63 -26.5t-63 26.5t-26 62.5z" />
<glyph unicode="&#xf8;" horiz-adv-x="1077" d="M54 5q3 51 84 126q9 8 21 20q-71 121 -76 285q-6 226 114 398q140 203 390 203q156 0 254 -113l16 18q90 104 113 104q24 0 42 -19t18 -43q0 -20 -87 -123q-4 -5 -36 -41q65 -140 62 -322q-3 -222 -116 -379q-128 -178 -339 -178q-163 0 -282 117q-20 -22 -23 -26 q-62 -84 -84 -84q-26 0 -49 17t-22 40zM280 436q0 -74 21 -132q126 141 412 471q-51 58 -139 59q-147 1 -228 -140q-66 -113 -66 -258zM362 207q66 -64 152 -64q104 0 179 76q85 85 90 227q5 130 -16 216z" />
<glyph unicode="&#xf9;" horiz-adv-x="1065" d="M109 667q0 137 30 312q14 87 95 87q43 0 72 -27.5t29 -70.5q0 -46 -14.5 -147t-14.5 -154q0 -167 11 -286t33 -191q33 -18 65 -27.5t63 -9.5q134 0 283 43l-1 203l-2 194q0 216 19 375q11 92 97 92q43 0 72 -28t27 -70l-18 -378q0 -72 1 -216t1 -216q0 -22 3.5 -67 t3.5 -67q0 -43 -29 -70.5t-71 -27.5q-77 0 -98 95q-125 -65 -288 -65q-131 0 -217 58q-95 64 -113 187q-39 265 -39 472zM338 1576q0 36 26.5 64.5t62.5 28.5q62 0 202 -166q137 -164 137 -228q0 -36 -28.5 -62.5t-64.5 -26.5q-43 0 -72 42l-100 149q-53 73 -124 128 q-39 30 -39 71z" />
<glyph unicode="&#xfa;" horiz-adv-x="1065" d="M109 667q0 137 30 312q14 87 95 87q43 0 72 -27.5t29 -70.5q0 -46 -14.5 -147t-14.5 -154q0 -167 11 -286t33 -191q33 -18 65 -27.5t63 -9.5q134 0 283 43l-1 203l-2 194q0 216 19 375q11 92 97 92q43 0 72 -28t27 -70l-18 -378q0 -72 1 -216t1 -216q0 -22 3.5 -67 t3.5 -67q0 -43 -29 -70.5t-71 -27.5q-77 0 -98 95q-125 -65 -288 -65q-131 0 -217 58q-95 64 -113 187q-39 265 -39 472zM479 1279q0 34 31 65q43 42 131 159q66 86 147 143q27 19 53 19q36 0 63 -28.5t27 -64.5q0 -40 -38 -70q-70 -56 -135 -145q-68 -94 -129 -145 q-28 -25 -59 -25q-36 0 -63.5 28t-27.5 64z" />
<glyph unicode="&#xfb;" horiz-adv-x="1065" d="M109 667q0 137 30 312q14 87 95 87q43 0 72 -27.5t29 -70.5q0 -46 -14.5 -147t-14.5 -154q0 -167 11 -286t33 -191q33 -18 65 -27.5t63 -9.5q134 0 283 43l-1 203l-2 194q0 216 19 375q11 92 97 92q43 0 72 -28t27 -70l-18 -378q0 -72 1 -216t1 -216q0 -22 3.5 -67 t3.5 -67q0 -43 -29 -70.5t-71 -27.5q-77 0 -98 95q-125 -65 -288 -65q-131 0 -217 58q-95 64 -113 187q-39 265 -39 472zM124 1258q0 35 30 65q56 54 305 336q27 31 61 31q55 0 132 -67q24 -21 109 -112l159 -170q26 -30 26 -61q0 -36 -27.5 -63.5t-64.5 -27.5q-33 0 -63 29 q-80 90 -250 260q-254 -312 -326 -312q-36 0 -63.5 28t-27.5 64z" />
<glyph unicode="&#xfc;" horiz-adv-x="1065" d="M109 667q0 137 30 312q14 87 95 87q43 0 72 -27.5t29 -70.5q0 -46 -14.5 -147t-14.5 -154q0 -167 11 -286t33 -191q33 -18 65 -27.5t63 -9.5q134 0 283 43l-1 203l-2 194q0 216 19 375q11 92 97 92q43 0 72 -28t27 -70l-18 -378q0 -72 1 -216t1 -216q0 -22 3.5 -67 t3.5 -67q0 -43 -29 -70.5t-71 -27.5q-77 0 -98 95q-125 -65 -288 -65q-131 0 -217 58q-95 64 -113 187q-39 265 -39 472zM220 1379q0 29 37.5 57t73.5 28q131 0 131 -105q0 -30 -44 -58q-40 -25 -75 -25q-123 0 -123 103zM722 1371q0 69 45 89q25 12 103 12q34 0 69 -31.5 t35 -61.5q0 -92 -143 -92q-41 0 -73 21q-36 24 -36 63z" />
<glyph unicode="&#xfd;" horiz-adv-x="1066" d="M-4 935q0 41 31.5 72t70.5 31q46 0 71 -35q170 -236 365 -672l148 345q80 179 154 308q32 56 84 56q41 0 72.5 -29t31.5 -69q0 -22 -13 -50l-346 -748q-128 -273 -196 -457l-66 -194q-26 -72 -90 -72q-42 0 -72.5 27.5t-30.5 68.5q0 100 216 579l-358 689l-45 73 q-27 46 -27 77zM336 1279q0 34 31 65q43 42 131 159q66 86 147 143q27 19 53 19q36 0 63 -28.5t27 -64.5q0 -40 -38 -70q-70 -56 -135 -145q-68 -94 -129 -145q-28 -25 -59 -25q-36 0 -63.5 28t-27.5 64z" />
<glyph unicode="&#xfe;" horiz-adv-x="1095" d="M112 1314q0 72 26 121q30 59 87 59q38 0 64.5 -27.5t26.5 -67.5l-2 -485q172 118 319 118q205 0 300 -182q75 -144 75 -381q0 -216 -116 -356q-123 -148 -328 -148q-100 0 -220 32l-2 -478q0 -44 -27.5 -72t-70.5 -28t-70.5 28t-27.5 72l3 400v399q-3 219 -15 399 q-22 334 -22 597zM333 685q13 -227 13 -477q109 -42 218 -42q125 0 191 93q57 81 57 210q0 363 -179 363q-92 0 -166 -41q-53 -29 -134 -106z" />
<glyph unicode="&#xff;" horiz-adv-x="883" d="M-4 935q0 41 31.5 72t70.5 31q46 0 71 -35q170 -236 365 -672l148 345q80 179 154 308q32 56 84 56q41 0 72.5 -29t31.5 -69q0 -22 -13 -50l-346 -748q-128 -273 -196 -457l-66 -194q-26 -72 -90 -72q-42 0 -72.5 27.5t-30.5 68.5q0 100 216 579l-358 689l-45 73 q-27 46 -27 77zM132 1287q0 29 37.5 57t73.5 28q131 0 131 -105q0 -30 -44 -58q-40 -25 -75 -25q-123 0 -123 103zM634 1279q0 69 45 89q25 12 103 12q34 0 69 -31.5t35 -61.5q0 -92 -143 -92q-41 0 -73 21q-36 24 -36 63z" />
<glyph unicode="&#x152;" horiz-adv-x="2445" d="M130 572q0 346 205 629q229 314 571 314q159 0 278.5 -34.5t199.5 -103.5q-8 61 -8 96q0 120 99 120q43 0 72 -30q240 65 427 65q243 0 389 -59q67 -27 67 -95q0 -40 -26 -71q-29 -34 -72 -34q-14 0 -31 5q-169 48 -327 48q-164 0 -388 -61q5 -33 7 -59t2 -45 q0 -140 -16 -382l438 41q192 20 237 20q44 0 73.5 -28t29.5 -75q0 -90 -91 -102l-239 -20l-462 -43q-8 -143 -8 -253q0 -220 32 -259q23 -28 156 -28q62 0 187 3.5t187 3.5q20 0 59 6t58 6q107 0 107 -103q0 -84 -86 -101q-94 -19 -406 -19q-270 0 -362 54q-105 63 -125 264 q-107 -151 -244 -227t-304 -76q-282 0 -478 169q-208 180 -208 464zM334 572q0 -193 143 -314q137 -114 339 -114q243 0 401 245q141 219 141 492q0 239 -107 336q-102 93 -345 93q-245 0 -415 -244q-157 -224 -157 -494z" />
<glyph unicode="&#x153;" horiz-adv-x="1837" d="M83 436q-6 226 114 398q140 203 390 203q219 0 319 -216q138 224 388 224q166 0 271 -56q129 -70 129 -212q0 -100 -113 -182q-50 -36 -212 -112l-382 -181q112 -167 334 -167q69 0 162 26q118 33 152 86.5t73 53.5q35 0 62.5 -26.5t27.5 -61.5q0 -111 -179 -191 q-153 -68 -298 -68q-310 0 -445 199q-129 -212 -362 -212q-168 0 -289 124q-135 138 -142 371zM280 436q0 -145 79 -226q66 -67 155 -67q104 0 179 76q85 84 90 227q14 387 -209 388q-147 1 -228 -140q-66 -113 -66 -258zM970 486l307 146q181 88 258 153q-86 80 -241 80 q-244 0 -324 -379z" />
<glyph unicode="&#x178;" horiz-adv-x="1301" d="M29 1419q0 43 31.5 72.5t71.5 29.5q49 0 82 -47l80 -124q106 -157 140 -214q75 -123 117 -228q33 -83 141 -227l229 558q39 69 108 213q28 68 93 68q40 0 71.5 -28t31.5 -72q0 -46 -53 -141q-24 -38 -64 -117l-172 -425q-100 -239 -188 -418l-125 -223l-53 -108 q-33 -58 -89 -58q-39 0 -71 29t-32 72q0 34 94 213l123 225q-179 231 -232 364q-45 113 -150 271q-144 216 -169 261q-15 27 -15 54zM306 1742q0 29 37.5 57t73.5 28q131 0 131 -105q0 -30 -44 -58q-40 -25 -75 -25q-123 0 -123 103zM808 1734q0 69 45 89q25 12 103 12 q34 0 69 -31.5t35 -61.5q0 -92 -143 -92q-41 0 -73 21q-36 24 -36 63z" />
<glyph unicode="&#x2c6;" horiz-adv-x="1139" d="M194 1258q0 35 30 65q56 54 305 336q27 31 61 31q55 0 132 -67q24 -21 109 -112l159 -170q26 -30 26 -61q0 -36 -27.5 -63.5t-64.5 -27.5q-33 0 -63 29q-80 90 -250 260q-254 -312 -326 -312q-36 0 -63.5 28t-27.5 64z" />
<glyph unicode="&#x2dc;" horiz-adv-x="1139" d="M170 1300q0 11 3 23q28 102 101 165q78 66 180 66q100 0 161 -58l83 -106q47 -58 112 -58q57 0 85 37l46 88l20 59q14 29 60 29q75 0 75 -74q0 -36 -43 -121q-40 -80 -69 -110q-56 -57 -143 -57q-131 0 -205 57q-27 21 -88 107q-42 57 -94 57q-31 0 -55.5 -11.5 t-42.5 -34.5l-44 -85q-25 -45 -65 -45q-31 0 -54 20.5t-23 51.5z" />
<glyph unicode="&#x2000;" horiz-adv-x="1128" />
<glyph unicode="&#x2001;" horiz-adv-x="2257" />
<glyph unicode="&#x2002;" horiz-adv-x="1128" />
<glyph unicode="&#x2003;" horiz-adv-x="2257" />
<glyph unicode="&#x2004;" horiz-adv-x="752" />
<glyph unicode="&#x2005;" horiz-adv-x="564" />
<glyph unicode="&#x2006;" horiz-adv-x="376" />
<glyph unicode="&#x2007;" horiz-adv-x="376" />
<glyph unicode="&#x2008;" horiz-adv-x="282" />
<glyph unicode="&#x2009;" horiz-adv-x="451" />
<glyph unicode="&#x200a;" horiz-adv-x="125" />
<glyph unicode="&#x2010;" horiz-adv-x="853" d="M111 539q0 78 84 78q79 0 237 7t237 7q89 0 89 -78q0 -69 -79 -78q-136 -14 -484 -14q-84 0 -84 78z" />
<glyph unicode="&#x2011;" horiz-adv-x="853" d="M111 539q0 78 84 78q79 0 237 7t237 7q89 0 89 -78q0 -69 -79 -78q-136 -14 -484 -14q-84 0 -84 78z" />
<glyph unicode="&#x2012;" horiz-adv-x="853" d="M111 539q0 78 84 78q79 0 237 7t237 7q89 0 89 -78q0 -69 -79 -78q-136 -14 -484 -14q-84 0 -84 78z" />
<glyph unicode="&#x2013;" horiz-adv-x="904" d="M44 645q0 78 82 96t271 18q56 0 166.5 -8.5t165.5 -8.5q43 0 71 -28t28 -71t-28 -71t-71 -28q-55 0 -165.5 8t-166.5 8q-132 0 -237 -15q-9 -1 -17 -1q-43 0 -71 28t-28 73z" />
<glyph unicode="&#x2014;" horiz-adv-x="1808" d="M67 645q0 93 96 99q41 3 228 3q122 0 366.5 -6.5t366.5 -6.5l234 6l205 8l57 -1q88 0 88 -91q0 -111 -174 -111q-27 0 -88.5 3t-88.5 3q-198 0 -594 -2.5t-594 -2.5q-102 0 -102 99z" />
<glyph unicode="&#x2018;" horiz-adv-x="369" d="M77 1484q0 103 82 103q76 0 89 -95q35 -245 35 -295q0 -103 -83 -103q-75 0 -89 101q-34 248 -34 289z" />
<glyph unicode="&#x2019;" horiz-adv-x="369" d="M58 1186q-1 36 23 144l38 175q14 79 76 79q36 0 58.5 -27t22.5 -64q2 -84 -53 -304q-24 -95 -85 -95q-77 0 -80 92z" />
<glyph unicode="&#x201a;" horiz-adv-x="612" d="M81 -100q0 65 86 192q89 132 147 132q36 0 64 -27t28 -63t-70 -118q-72 -86 -77 -125q-10 -85 -88 -85q-90 0 -90 94z" />
<glyph unicode="&#x201c;" horiz-adv-x="806" d="M71 1499q0 38 28.5 63.5t67.5 25.5q64 0 85 -66l51 -178l45 -161q0 -38 -28.5 -64.5t-65.5 -26.5q-60 0 -84 58q-14 32 -56 178q-43 150 -43 171zM381 1526q0 39 28 64t67 25q71 0 88 -74l59 -191q45 -141 45 -171q0 -38 -27.5 -64t-65.5 -26q-67 0 -88 67 q-106 342 -106 370z" />
<glyph unicode="&#x201d;" horiz-adv-x="806" d="M104 1089q0 112 97 423q22 68 86 68q39 0 67.5 -26t28.5 -64l-59 -220q-23 -87 -36 -187q-10 -85 -90 -85q-40 0 -67 25.5t-27 65.5zM448 1089q0 112 97 423q22 68 86 68q39 0 67.5 -26t28.5 -64l-59 -220q-23 -87 -36 -187q-10 -85 -90 -85q-40 0 -67 25.5t-27 65.5z " />
<glyph unicode="&#x201e;" horiz-adv-x="843" d="M81 -100q0 65 86 192q89 132 147 132q36 0 64 -27t28 -63t-70 -118q-72 -86 -77 -125q-10 -85 -88 -85q-90 0 -90 94zM436 -100q0 65 86 192q89 132 147 132q36 0 64 -27t28 -63t-70 -118q-72 -86 -77 -125q-10 -85 -88 -85q-90 0 -90 94z" />
<glyph unicode="&#x2022;" horiz-adv-x="793" d="M183 758q0 83 58.5 142t141.5 59t141.5 -59t58.5 -142t-58.5 -141.5t-141.5 -58.5t-141.5 58.5t-58.5 141.5z" />
<glyph unicode="&#x2026;" horiz-adv-x="1383" d="M178 7v56q0 75 97 75t97 -75v-56q0 -74 -97 -74t-97 74zM599 18v65q0 74 97 74q96 0 96 -74v-65q0 -74 -96 -74q-97 0 -97 74zM1031 15q0 15 8 39.5t9 35.5q9 71 96 71q98 0 98 -76q0 -144 -111 -144q-37 0 -66 18q-34 21 -34 56z" />
<glyph unicode="&#x202f;" horiz-adv-x="451" />
<glyph unicode="&#x2039;" horiz-adv-x="781" d="M106 605q0 50 68 83q94 45 205 162q154 162 184 186.5t60 24.5q36 0 63.5 -27.5t27.5 -64.5q0 -34 -31 -64q-96 -102 -298 -291q56 -41 138 -127q96 -101 132 -132t36 -68t-27 -65t-63 -28q-27 0 -55 21q-40 29 -171 166q-101 105 -194 141q-75 28 -75 83z" />
<glyph unicode="&#x203a;" horiz-adv-x="781" d="M106 969q0 -34 31 -64q95 -102 298 -291q-56 -41 -138 -127q-97 -101 -132.5 -132t-35.5 -68t27 -65t63 -28q27 0 55 21q40 29 171 166q101 105 194 141q75 28 75 83q0 50 -69 83q-93 45 -204 162q-155 162 -184.5 186.5t-59.5 24.5q-36 0 -63.5 -27.5t-27.5 -64.5z" />
<glyph unicode="&#x205f;" horiz-adv-x="564" />
<glyph unicode="&#x20ac;" d="M-45 585q0 72 89 90q22 4 147 6q13 85 37 169q-184 -4 -186 -4q-37 0 -62 26t-25 64q0 72 101 89q24 4 237 4q234 522 604 522q96 0 156 -19q35 51 92 51q71 0 93 -115q9 -51 9 -172q0 -46 -25 -77q-28 -34 -73 -34q-63 0 -96 75q-30 68 -56 82q-21 12 -100 12 q-200 0 -382 -325l447 -1q39 0 64 -25t25 -64q0 -38 -25 -63.5t-64 -25.5h-525q-37 -108 -43 -170l354 -4q38 0 63.5 -25t25.5 -64t-25.5 -64t-63.5 -25q-43 0 -370 4q7 -168 64 -245q65 -86 214 -86q94 0 174 50q26 16 114 92q58 50 98 50q41 0 71 -32t30 -73 q0 -43 -38 -79q-123 -112 -202 -155q-109 -58 -247 -58q-229 0 -358 154q-120 144 -120 383q-15 -1 -66 -4q-40 -3 -65 -3q-92 0 -92 89z" />
<glyph unicode="&#x2122;" horiz-adv-x="1808" d="M77 1518q0 74 75 74q36 0 108 -7t109 -7l325 6l78 5q48 3 78 3q79 0 79 -75q0 -68 -70 -74q-91 -8 -311 -13q-4 -62 3 -167q10 -124 10 -168q0 -31 13.5 -91.5t13.5 -82.5q0 -31 -23.5 -51.5t-54.5 -20.5q-68 0 -82 72l-10 188l-14 163q-9 94 -6 157q-43 0 -124 7t-122 7 q-75 0 -75 75zM763 946q0 22 18 48q70 98 119 268l84 281q20 52 69 52q96 0 146 -194l51 -272q17 29 57 164q44 148 73 211q48 105 97 105q55 0 71 -61l67 -231l46 -182q27 -92 72 -175q12 -22 12 -40q0 -30 -24 -52t-54 -22q-72 0 -129 203l-65 272q-73 -201 -101 -262 q-89 -195 -157 -195q-47 0 -67 66.5t-39 193.5q-21 137 -36 195q-129 -449 -233 -449q-30 0 -53.5 23t-23.5 53z" />
<glyph unicode="&#x25fc;" horiz-adv-x="1105" d="M0 0v1105h1105v-1105h-1105z" />
<glyph unicode="&#xfb01;" horiz-adv-x="1349" d="M75 886q0 99 175 104l96 3q3 56 15 152q26 222 112 327q104 127 325 127q143 0 143 -97q0 -96 -130 -96q-242 0 -271 -336l-3 -62q360 25 458 25q175 0 175 -110q0 -94 -10 -234.5t-10 -234.5q0 -60 3.5 -179.5t3.5 -179.5q0 -44 -27 -72t-71 -28q-43 0 -70.5 28 t-27.5 72q0 60 -3.5 179.5t-3.5 179.5q0 90 7 199l11 184l-75 2q-62 0 -369 -24l-8 -228q0 -62 4 -186t4 -185q0 -190 -22 -296q-17 -80 -93 -80q-41 0 -70 26.5t-29 66.5q0 8 2 20q21 130 21 283l-3 273v290q-125 -10 -158 -10q-101 0 -101 97zM987 1382q0 48 35 82t83 34 t82.5 -34t34.5 -82t-34.5 -82t-82.5 -34t-83 34t-35 82z" />
<glyph unicode="&#xfb02;" horiz-adv-x="1343" d="M70 771q0 99 175 104l96 3l20 267q27 232 130 328q138 130 494 143q25 1 77 -3q58 -4 77 -4q99 0 99 -100q0 -158 -5 -361.5t-5 -361.5l-15 -497q0 -79 -8 -232q-10 -100 -98 -100q-98 0 -98 102q0 121 11 363.5t11 363.5l5 341l5 319q-47 5 -52 5q-279 0 -369 -98 q-62 -67 -80 -283q-5 -54 -8 -177q170 12 220 12q159 0 159 -100q0 -102 -158 -97l-77 3l-153 -11q-3 -62 -3 -113q0 -62 4 -186t4 -185q0 -190 -22 -296q-17 -80 -93 -80q-41 0 -70 26.5t-29 66.5q0 8 2 20q21 130 21 283l-5 215l-3 233q-125 -10 -158 -10q-101 0 -101 97z " />
</font>
</defs>
</svg>
