<?xml version="1.0" standalone="no"?>
<!DOCTYPE svg PUBLIC "-//W3C//DTD SVG 1.1//EN" "http://www.w3.org/Graphics/SVG/1.1/DTD/svg11.dtd" >
<svg xmlns="http://www.w3.org/2000/svg">
<metadata></metadata>
<defs>
<font id="jockey_oneregular" horiz-adv-x="937" >
<font-face units-per-em="2048" ascent="1638" descent="-410" />
<missing-glyph horiz-adv-x="327" />
<glyph unicode="ij" horiz-adv-x="894" d="M88 0v1047h270v-1047h-270zM88 1157v277h270v-277h-270zM362 -92h142q51 31 51 98v1041h268v-943q0 -156 -36.5 -248t-153.5 -163h-271v215zM555 1137v297h268v-297h-268z" />
<glyph horiz-adv-x="2048" />
<glyph horiz-adv-x="2048" />
<glyph unicode="&#xd;" horiz-adv-x="681" />
<glyph horiz-adv-x="552" />
<glyph unicode=" "  horiz-adv-x="327" />
<glyph unicode="&#x09;" horiz-adv-x="327" />
<glyph unicode="&#xa0;" horiz-adv-x="327" />
<glyph unicode="!" horiz-adv-x="454" d="M82 1434h291l-31 -656v-284h-229v284zM113 0v276h229v-276h-229z" />
<glyph unicode="&#x22;" horiz-adv-x="718" d="M106 1434h228l-21 -453h-186zM385 1434h227l-20 -453h-186z" />
<glyph unicode="#" horiz-adv-x="1280" d="M70 254l26 152h213l53 274h-215l27 151h217l49 252h154l-49 -252h268l49 252h154l-49 -252h225l-27 -151h-227l-53 -274h229l-27 -152h-231l-47 -254h-154l47 254h-268l-47 -254h-154l48 254h-211zM463 406h268l53 274h-268z" />
<glyph unicode="$" horiz-adv-x="808" d="M68 1112q0 213 178 289h71v176h218v-176h202v-246h-397l-6 -12l332 -525q100 -162 100 -274q0 -207 -137 -303h-97v-176h-217v176h-229v238h434l6 12l-379 588q-80 127 -79 233z" />
<glyph unicode="%" horiz-adv-x="1589" d="M20 989q0 283 175 445h299q174 -162 174 -445q0 -242 -174 -418h-299q-174 176 -175 418zM244 1000.5q0 -142.5 55 -236.5h90q55 100 55 236.5t-55 236.5h-90q-55 -94 -55 -236.5zM453 0l454 1434h232l-463 -1434h-223zM922 418q0 283 174 444h299q174 -162 174 -444 q0 -242 -174 -418h-299q-174 176 -174 418zM1145 429.5q0 -142.5 55 -236.5h90q55 100 55.5 236t-55.5 237h-90q-55 -94 -55 -236.5z" />
<glyph unicode="&#x26;" horiz-adv-x="952" d="M61 401.5q0 135.5 68 257t201 203.5l-27 62q-43 84 -43 180q0 176 146 237h329v-245h-211l-4 -13l361 -856v-227h-570q-117 45 -183.5 155.5t-66.5 246zM317 421q0 -126 80 -194h215l-182 416q-113 -96 -113 -222z" />
<glyph unicode="'" horiz-adv-x="370" d="M72 1434h227l-20 -453h-187z" />
<glyph unicode="(" horiz-adv-x="555" d="M72 671q0 570 262 967h221q-242 -416 -242 -963.5t242 -981.5h-221q-262 408 -262 978z" />
<glyph unicode=")" horiz-adv-x="555" d="M0 -307q242 434 242 982t-242 963h221q262 -397 262 -967t-262 -978h-221z" />
<glyph unicode="*" horiz-adv-x="770" d="M82 1212l41 129l182 -53l10 211h140l8 -211l184 53l41 -129l-178 -65l115 -176l-109 -80l-131 166l-131 -166l-109 80l117 172z" />
<glyph unicode="+" horiz-adv-x="704" d="M10 594v199h684v-199h-684zM252 342v705h197v-705h-197z" />
<glyph unicode="," horiz-adv-x="458" d="M82 0v303h295v-121q0 -154 -35 -248t-139 -239l-119 57q98 152 119 248h-121z" />
<glyph unicode="-" horiz-adv-x="524" d="M51 473v234h422v-234h-422z" />
<glyph unicode="." horiz-adv-x="458" d="M82 0v303h295v-303h-295z" />
<glyph unicode="/" horiz-adv-x="788" d="M25 0l454 1434h273l-463 -1434h-264z" />
<glyph unicode="0" horiz-adv-x="1009" d="M51 696q0 477 258 738h391q135 -137 196.5 -322.5t61.5 -370.5q0 -483 -258 -741h-391q-137 137 -197.5 323.5t-60.5 372.5zM328 719q0 -285 88 -481h180q88 225 88 495.5t-90 454.5h-176q-90 -184 -90 -469z" />
<glyph unicode="1" horiz-adv-x="583" d="M20 1188v246h451v-1434h-287v1188h-164z" />
<glyph unicode="2" horiz-adv-x="751" d="M41 0v205l408 969l-7 14h-358v246h442q178 -76 179 -242q0 -90 -46 -205q-12 -35 -20 -57.5t-26.5 -64.5t-26.5 -62q-35 -80 -66 -148l-184 -417h358v-238h-653z" />
<glyph unicode="3" horiz-adv-x="837" d="M31 0v238h352q25 23 55.5 90t30.5 137q0 129 -92 190h-166v224l248 286l-10 23h-410v246h493q174 -74 175 -234q0 -123 -113 -235l-123 -123v-11q281 -88 281 -382q0 -150 -79 -269t-175 -180h-467z" />
<glyph unicode="4" horiz-adv-x="980" d="M66 582q0 88 98 333l205 519h280l-330 -881h304v373h266v-926h-266v297h-379q-178 92 -178 285z" />
<glyph unicode="5" horiz-adv-x="907" d="M92 676v758h672v-246h-399v-291q61 27 151 27h156q154 -104 153 -267q0 -98 -69 -219q-20 -37 -72 -114l-211 -324h-317l415 657l-6 19h-473z" />
<glyph unicode="6" horiz-adv-x="985" d="M68 477q0 104 31.5 225t65.5 201t93 203l148 328h284l-266 -592q75 47 147 47h107q117 -59 181.5 -175t64.5 -237q0 -289 -230 -477h-393q-233 166 -233 477zM346 472q0 -77 18.5 -142.5t41.5 -91.5h178q55 96 55 217.5t-53 195.5h-191q-49 -102 -49 -179z" />
<glyph unicode="7" horiz-adv-x="761" d="M20 1188v246h732v-191l-424 -1243h-289l412 1188h-431z" />
<glyph unicode="8" horiz-adv-x="997" d="M51 403q0 225 174 340v9q-139 119 -139 297q0 135 77 238.5t183 146.5h309q106 -43 181 -143.5t75 -235.5q0 -178 -141 -299v-8q176 -117 176 -336q0 -137 -77 -251t-179 -161h-377q-111 47 -186.5 155.5t-75.5 247.5zM336 436q0 -63 23.5 -120.5t52.5 -77.5h174 q29 20 52.5 77.5t23.5 120.5q0 115 -72 174h-182q-72 -59 -72 -174zM346 1020q0 -102 72 -170h162q72 68 71 170q0 55 -22.5 101t-50.5 67h-158q-29 -20 -51.5 -66.5t-22.5 -101.5z" />
<glyph unicode="9" horiz-adv-x="958" d="M51 956q0 303 244 478h379q233 -166 233 -478q0 -236 -190 -628l-148 -328h-284l266 592q-76 -47 -148 -47h-106q-117 59 -181.5 175t-64.5 236zM336 978q0 -122 53 -196h191q49 102 49 179t-17.5 138.5t-40.5 88.5h-180q-55 -88 -55 -210z" />
<glyph unicode=":" horiz-adv-x="458" d="M82 0v303h295v-303h-295zM82 606v303h295v-303h-295z" />
<glyph unicode=";" horiz-adv-x="458" d="M82 0v303h295v-121q0 -154 -35 -248t-139 -239l-119 57q98 152 119 248h-121zM82 606v303h295v-303h-295z" />
<glyph unicode="&#x3c;" horiz-adv-x="776" d="M41 592v205l590 297l104 -211l-416 -189l416 -188l-104 -211z" />
<glyph unicode="=" horiz-adv-x="704" d="M10 348v199h684v-199h-684zM10 758v198h684v-198h-684z" />
<glyph unicode="&#x3e;" horiz-adv-x="776" d="M41 506l416 188l-416 189l104 211l590 -297v-205l-590 -297z" />
<glyph unicode="?" horiz-adv-x="632" d="M61 1180v254h342q94 -39 133 -115t39 -134.5t-13 -104.5t-25 -72l-91 -164q-59 -119 -59 -266v-84h-250v92q0 176 90 401q31 78 40 102.5t9 53.5q0 37 -38 37h-177zM137 0v276h250v-276h-250z" />
<glyph unicode="@" horiz-adv-x="1478" d="M51 389q0 391 410 658h680q285 -213 284 -515q0 -156 -56 -261t-181 -230h-322l-26 53q-31 -35 -66.5 -44t-107.5 -9h-95q-150 137 -149.5 337t166.5 335h78q104 0 161 -47l11 47h204v-475h43q59 61 82 122.5t23 164t-35 169t-108 137.5h-515q-246 -166 -245 -442 q0 -227 129 -352q61 -59 141 -109h469v-215h-543q-209 109 -320.5 264.5t-111.5 411.5zM661.5 379q-0.5 -72 36.5 -133h109v266h-102q-43 -61 -43.5 -133z" />
<glyph unicode="A" horiz-adv-x="1003" d="M20 0l277 1434h424l262 -1434h-274l-43 227h-324l-43 -227h-279zM375 446h256l-47 244l-80 477h-4l-80 -477z" />
<glyph unicode="B" horiz-adv-x="1026" d="M98 0v1434h584q100 -37 178 -129.5t78 -223.5q0 -231 -152 -323v-8q188 -104 189 -328q0 -256 -260 -422h-617zM377 238h211q37 27 66.5 84t29.5 114.5t-24.5 104.5t-61.5 69h-221v-372zM377 842h203q90 55 90 167.5t-84 178.5h-209v-346z" />
<glyph unicode="C" horiz-adv-x="907" d="M61 722q0 206 78 396.5t232 315.5h485v-246h-360q-55 -63 -95.5 -204.5t-40.5 -270.5t40.5 -270.5t95.5 -204.5h360v-238h-520q-135 127 -205 321.5t-70 400.5z" />
<glyph unicode="D" horiz-adv-x="1044" d="M98 0v1434h594q291 -258 291 -699.5t-272 -734.5h-613zM377 238h184q57 72 91 209t34 272q0 322 -121 469h-188v-950z" />
<glyph unicode="E" horiz-adv-x="901" d="M98 0v1434h736v-246h-455v-342h405v-238h-405v-370h463v-238h-744z" />
<glyph unicode="F" horiz-adv-x="866" d="M98 0v1434h748v-246h-467v-359h405v-237h-405v-592h-281z" />
<glyph unicode="G" horiz-adv-x="1011" d="M61 711.5q0 203.5 82 402.5t230 320h497v-246h-381q-53 -61 -92 -193.5t-39 -281t36 -282.5t89 -193h197v557h270v-344q0 -283 -172 -451h-434q-147 135 -215 321.5t-68 390z" />
<glyph unicode="H" horiz-adv-x="1085" d="M98 0v1434h281v-578h328v578h280v-1434h-280v594h-328v-594h-281z" />
<glyph unicode="I" horiz-adv-x="477" d="M98 0v1434h281v-1434h-281z" />
<glyph unicode="J" horiz-adv-x="667" d="M33 0v238h211q37 47 47 109.5t10 252.5v834h281v-738q0 -137 -5.5 -212.5t-25.5 -172.5q-39 -182 -195 -311h-323z" />
<glyph unicode="K" horiz-adv-x="948" d="M98 0v1434h281v-605h10l256 605h289l-299 -684l313 -750h-311l-244 627h-14v-627h-281z" />
<glyph unicode="L" horiz-adv-x="845" d="M98 0v1434h281v-1196h426v-238h-707z" />
<glyph unicode="M" horiz-adv-x="1232" d="M68 0l92 1434h256l88 -330l108 -449h9h-9h9l108 449l88 330h256l92 -1434h-268l-39 782h-10l-148 -577h-168l-147 577h-10l-39 -782h-268z" />
<glyph unicode="N" horiz-adv-x="1026" d="M98 0v1434h207l377 -824l10 4l-22 252v568h258v-1434h-191l-383 793l-10 -5l12 -241v-547h-258z" />
<glyph unicode="O" horiz-adv-x="1110" d="M61 716q0 208 70 404.5t213 313.5h422q143 -117 213 -313.5t70 -404.5t-68 -394.5t-215 -321.5h-422q-147 135 -215 321.5t-68 394.5zM358 714.5q0 -149.5 36 -283.5t87 -193h148q51 59 87 193t36 283.5t-35 281.5t-86 192h-150q-51 -59 -87 -191.5t-36 -282z" />
<glyph unicode="P" horiz-adv-x="1005" d="M98 0v1434h555q139 -61 220 -188.5t81 -296.5t-84 -312t-247 -203h-248v-434h-277zM375 676h182q113 92 113 270q0 76 -30 143.5t-71 98.5h-194v-512z" />
<glyph unicode="Q" horiz-adv-x="1110" d="M61 716q0 208 70 404.5t213 313.5h422q143 -117 213 -313.5t70 -404.5t-68 -394.5t-215 -321.5h-68l64 -231h-262l-64 231h-92q-147 135 -215 321.5t-68 394.5zM358 714.5q0 -149.5 36 -283.5t87 -193h148q51 59 87 193t36 283.5t-35 281.5t-86 192h-150 q-51 -59 -87 -191.5t-36 -282z" />
<glyph unicode="R" horiz-adv-x="1003" d="M98 0v1434h545q129 -43 220 -159t91 -284q0 -274 -217 -403l207 -588h-287l-174 522h-108v-522h-277zM375 752h176q35 8 77 70.5t42 146.5t-36 147.5t-71 71.5h-188v-436z" />
<glyph unicode="S" horiz-adv-x="794" d="M51 1145q0 213 178 289h492v-246h-393l-6 -12l327 -598q100 -180 101 -275q0 -207 -138 -303h-542v238h424l6 12l-369 661q-80 143 -80 234z" />
<glyph unicode="T" d="M20 1188v246h898v-246h-310v-1188h-278v1188h-310z" />
<glyph unicode="U" horiz-adv-x="1077" d="M88 588v846h281v-949q0 -98 19.5 -148t64.5 -99h172q45 49 64.5 99t19.5 148v949h280v-846q0 -104 -5 -162.5t-26 -142.5q-35 -150 -192 -283h-455q-158 129 -192 283q-31 125 -31 305z" />
<glyph unicode="V" horiz-adv-x="987" d="M10 1434h295l113 -664l69 -430h13l69 430l113 664h295l-291 -1434h-385z" />
<glyph unicode="W" horiz-adv-x="1318" d="M20 1434h275l57 -422l43 -475h11l75 473l64 424h231l62 -424l77 -473h11l41 475l57 422h274l-198 -1434h-295l-143 846h-9l-147 -846h-287z" />
<glyph unicode="X" horiz-adv-x="946" d="M27 0l211 750l-197 684h283l145 -584h8l146 584h282l-196 -684l211 -750h-291l-152 614h-8l-152 -614h-290z" />
<glyph unicode="Y" horiz-adv-x="905" d="M0 1434h279l127 -437l43 -252h8l43 252l127 437h278l-303 -957v-477h-299v477z" />
<glyph unicode="Z" horiz-adv-x="884" d="M49 0v233l483 955h-483v246h782v-240l-485 -956h488v-238h-785z" />
<glyph unicode="[" horiz-adv-x="507" d="M92 -307v1945h385v-225h-135v-1495h135v-225h-385z" />
<glyph unicode="\" horiz-adv-x="788" d="M20 1434h273l455 -1434h-265z" />
<glyph unicode="]" horiz-adv-x="507" d="M31 -82h135v1495h-135v225h385v-1945h-385v225z" />
<glyph unicode="^" horiz-adv-x="892" d="M82 741l235 693h242l252 -693l-248 -65l-125 371l-106 -371z" />
<glyph unicode="_" horiz-adv-x="851" d="M0 -207h852v-233h-852v233z" />
<glyph unicode="`" horiz-adv-x="1024" d="M279 1278l96 211l350 -205l-82 -166z" />
<glyph unicode="a" d="M59 331q0 216 179 341h192q80 0 150 -49v102q0 80 -70 106h-369v216h508q123 -74 162 -169.5t39 -259.5v-307q0 -170 8 -311h-233l-37 74q-80 -74 -226 -74h-129q-174 115 -174 331zM319 340q0 -80 46 -125h217v258h-220q-43 -53 -43 -133z" />
<glyph unicode="b" horiz-adv-x="970" d="M88 0v1434h270v-461q45 41 85 57.5t120 16.5h164q86 -84 135 -217.5t49 -292.5q0 -342 -204 -537h-195q-100 0 -168 76l-37 -76h-219zM360 215h197q76 129 76 313.5t-78 302.5h-195v-616z" />
<glyph unicode="c" horiz-adv-x="798" d="M59 532.5q0 339.5 258 514.5h433v-216h-308q-100 -104 -100 -299q0 -86 26.5 -175t73.5 -142h308v-215h-449q-242 193 -242 532.5z" />
<glyph unicode="d" horiz-adv-x="968" d="M59 538q0 173 52.5 293.5t148.5 215.5h176q109 0 172 -58v445h273v-1434h-207l-37 74q-45 -41 -85 -57.5t-120 -16.5h-178q-90 86 -142.5 225.5t-52.5 312.5zM336 515q0 -187 74 -300h198v616h-196q-76 -129 -76 -316z" />
<glyph unicode="e" horiz-adv-x="929" d="M59 526q0 336 254 521h332q137 -100 186.5 -213t49.5 -227.5t-19 -196.5h-510q6 -47 36 -107.5t65 -87.5h387v-215h-521q-143 96 -201.5 238.5t-58.5 287.5zM338 602h293q1 10 1 20q0 52 -18 108q-20 66 -53 101h-153q-31 -37 -50.5 -102t-19.5 -127z" />
<glyph unicode="f" horiz-adv-x="634" d="M18 831v216h113q0 266 231 387h295v-215h-184q-70 -43 -70 -172h213v-216h-213v-831h-272v831h-113z" />
<glyph unicode="g" horiz-adv-x="960" d="M59 522q0 188 53.5 308t155.5 217h152q133 0 211 -86l37 86h213v-938q0 -156 -40 -250.5t-159 -165.5h-467v213h350q51 31 51 98v121q-76 -63 -241 -64h-150q-166 199 -166 461zM336 539.5q0 -164.5 63 -271.5h209v563h-198q-74 -127 -74 -291.5z" />
<glyph unicode="h" horiz-adv-x="995" d="M88 0v1434h272v-461q45 41 85 57.5t120 16.5h195q90 -115 122.5 -230t32.5 -287v-530h-272v551q0 195 -53 280h-230v-831h-272z" />
<glyph unicode="i" horiz-adv-x="446" d="M88 0v1047h270v-1047h-270zM88 1157v277h270v-277h-270z" />
<glyph unicode="j" horiz-adv-x="444" d="M-104 -92h141q51 31 51 98v1041h268v-943q0 -156 -36.5 -248t-153.5 -163h-270v215zM88 1137v297h268v-297h-268z" />
<glyph unicode="k" horiz-adv-x="872" d="M88 0v1434h272v-760h29l193 373h266l-242 -457l244 -590h-270l-189 459h-31v-459h-272z" />
<glyph unicode="l" horiz-adv-x="446" d="M88 0v1434h270v-1434h-270z" />
<glyph unicode="m" horiz-adv-x="1404" d="M88 0v1047h213l37 -74q45 41 85 57.5t120 16.5h145l51 -72q43 39 83 55.5t120 16.5h227q90 -115 123 -230t33 -287v-530h-272v551q0 188 -58 280h-196q45 -88 45 -239v-592h-273v551q0 195 -53 280h-158v-831h-272z" />
<glyph unicode="n" horiz-adv-x="995" d="M88 0v1047h213l37 -74q45 41 85 57.5t120 16.5h217q90 -115 122.5 -230t32.5 -287v-530h-272v551q0 195 -53 280h-230v-831h-272z" />
<glyph unicode="o" horiz-adv-x="974" d="M59 520q0 166 46.5 289t146.5 238h479q106 -123 145 -239t39 -291q0 -328 -204 -517h-447q-205 190 -205 520zM336 535.5q0 -191.5 74 -320.5h155q74 143 74 325.5t-76 290.5h-153q-74 -104 -74 -295.5z" />
<glyph unicode="p" horiz-adv-x="970" d="M88 -307v1354h219l31 -74q45 41 85 57.5t120 16.5h184q86 -84 135 -217.5t49 -292.5q0 -342 -204 -537h-175q-109 0 -172 57v-364h-272zM360 215h197q76 129 76 313.5t-78 302.5h-195v-616z" />
<glyph unicode="q" horiz-adv-x="968" d="M59 537q0 156 53.5 290t141.5 220h172q80 0 120 -16.5t85 -57.5l31 61h219v-1341h-273v364q-63 -57 -172 -57h-172q-205 195 -205 537zM336 527q0 -185 76 -314h196v618h-194q-78 -119 -78 -304z" />
<glyph unicode="r" horiz-adv-x="651" d="M90 0v1047h195l51 -111q82 111 207 111h80v-275h-261v-772h-272z" />
<glyph unicode="s" horiz-adv-x="716" d="M41 0v215h375l-219 322q-14 23 -44 63.5t-46.5 66t-22.5 38t-16.5 32t-14.5 33.5q-8 39 -8 64q0 150 145 213h453v-216h-319l194 -288q131 -186 146 -256q8 -33 8 -68q0 -145 -109 -219h-522z" />
<glyph unicode="t" horiz-adv-x="638" d="M8 831v216h142v284h272v-284h168v-216h-168v-440q0 -125 43 -176h125v-215h-291q-109 100 -131 217q-18 99 -18 240v374h-142z" />
<glyph unicode="u" horiz-adv-x="976" d="M80 516v531h272v-551q0 -186 74 -281h190v832h273v-1047h-215l-37 74q-77 -74 -186 -74h-215q-90 115 -123 229.5t-33 286.5z" />
<glyph unicode="v" horiz-adv-x="968" d="M82 502v545h272v-537q0 -180 68 -295h125q68 121 67 293v539h273v-535q0 -162 -57.5 -297t-155.5 -215h-379q-98 80 -155.5 211t-57.5 291z" />
<glyph unicode="w" horiz-adv-x="1400" d="M82 502v545h272v-545q0 -182 66 -287h145v832h271v-832h143q68 109 68 299v533h272v-545q0 -346 -193 -502h-170q-158 0 -260 94q-102 -94 -252 -94h-170q-193 135 -192 502z" />
<glyph unicode="x" horiz-adv-x="862" d="M8 0l203 537l-195 510h281l129 -390h8l127 390h285l-195 -510l203 -537h-281l-141 406h-8l-135 -406h-281z" />
<glyph unicode="y" horiz-adv-x="968" d="M72 -92h221q43 12 71.5 43t59.5 88l12 22h-141q-98 80 -155.5 216t-57.5 298v472h272v-474q0 -178 72 -297h121q67 115 67 292v5v474h273v-457q0 -154 -40 -270.5t-130 -264.5l-137 -223q-37 -63 -78 -94t-107 -45h-323v215z" />
<glyph unicode="z" horiz-adv-x="823" d="M49 0v158l402 673h-377v216h700v-158l-395 -674h391v-215h-721z" />
<glyph unicode="{" horiz-adv-x="507" d="M51 596v143h74q35 61 16 160l-47 334q-53 340 242 405h151v-143h-92q-35 -31 -45 -114t8 -183l35 -213q35 -217 -108 -309v-17q143 -92 108 -309l-35 -213q-18 -100 -8 -183t45 -114h92v-143h-151q-295 66 -242 405l47 334q18 98 -16 160h-74z" />
<glyph unicode="|" horiz-adv-x="466" d="M102 0v1434h263v-1434h-263z" />
<glyph unicode="}" horiz-adv-x="507" d="M20 -160h93q35 31 45 114t-8 183l-35 213q-35 217 108 309v17q-143 92 -108 309l35 213q18 100 7.5 183t-44.5 114h-93v143h152q295 -66 242 -405l-47 -334q-18 -98 16 -160h74v-143h-74q-35 -61 -16 -160l47 -334q53 -340 -242 -405h-152v143z" />
<glyph unicode="~" horiz-adv-x="843" d="M20 502v239q115 53 263 60l278 -99q147 0 262 29v-237q-108 -33 -262 -35l-278 98q-131 -10 -263 -55z" />
<glyph unicode="&#xa1;" horiz-adv-x="454" d="M82 -387h291l-31 655v285h-229v-285zM113 770v277h229v-277h-229z" />
<glyph unicode="&#xa2;" horiz-adv-x="821" d="M82 743.5q0 339.5 258 513.5h90v177h217v-177h125v-215h-307q-100 -104 -100 -299q0 -86 26.5 -175t73.5 -142h307v-215h-125v-211h-217v211h-106q-242 193 -242 532.5z" />
<glyph unicode="&#xa3;" horiz-adv-x="864" d="M55 594l35 215h96v172q0 307 238 453h364v-246h-264q-37 -37 -47 -73t-10 -105v-201h321l-34 -215h-287v-356h336v-238h-735v170l118 68v356h-131z" />
<glyph unicode="&#xa5;" d="M16 1434h279l127 -437l43 -252h8l43 252l127 437h279l-238 -746h143v-233h-209v-455h-299v455h-204v233h137z" />
<glyph unicode="&#xa6;" horiz-adv-x="466" d="M102 0v647h263v-647h-263zM102 791v643h263v-643h-263z" />
<glyph unicode="&#xa7;" horiz-adv-x="835" d="M14.5 611.5q-0.5 78.5 26.5 134t53.5 81t75.5 58.5h143q-98 184 -98 280q0 186 197 269h342v-246h-301l-7 -10l189 -375q8 -14 37 -66l37 -69q76 -145 75 -254q0 -164 -147 -267h-154q109 -180 109 -280q0 -186 -197 -268h-342v233h301l6 10l-176 344q-12 25 -57 109 t-61 119q-51 119 -51.5 197.5zM231 657l154 -301h176l8 19l-153 301h-176z" />
<glyph unicode="&#xa8;" horiz-adv-x="1024" d="M199 1157v277h270v-277h-270zM553 1157v277h270v-277h-270z" />
<glyph unicode="&#xa9;" horiz-adv-x="1576" d="M51 715.5q0 232.5 112.5 423t319.5 295.5h611q206 -105 319 -295.5t113 -423t-113 -422t-319 -293.5h-611q-207 104 -319.5 293.5t-112.5 422zM295 715.5q0 -156.5 67.5 -299t206.5 -207.5h439q139 65 206.5 207.5t67.5 299t-67.5 297t-206.5 210.5h-439 q-139 -70 -206.5 -210.5t-67.5 -297zM446 717q0 -256 209 -412h344v238h-219q-66 55 -65.5 166.5t65.5 164.5h219v240h-344q-209 -141 -209 -397z" />
<glyph unicode="&#xaa;" horiz-adv-x="743" d="M20 614l136 820h430l137 -820h-254l-18 121h-160l-19 -121h-252zM315 918h113l-49 296h-17z" />
<glyph unicode="&#xab;" horiz-adv-x="1017" d="M72 500l247 395l183 -100l-174 -295l194 -279l-182 -100zM496 500l247 395l183 -100l-174 -295l194 -279l-182 -100z" />
<glyph unicode="&#xac;" horiz-adv-x="704" d="M10 600v244h684v-580h-272v336h-412z" />
<glyph unicode="&#xad;" horiz-adv-x="606" d="M92 473v234h422v-234h-422z" />
<glyph unicode="&#xae;" horiz-adv-x="1101" d="M51 964.5q0 151.5 69.5 279.5t201.5 190h458q131 -61 201 -189.5t70 -280t-70 -279.5t-201 -189h-458q-131 61 -201 189t-70 279.5zM217 964.5q0 -94.5 37 -183.5t106 -136h381q68 47 106 136t38 183.5t-38 183.5t-106 136h-381q-70 -47 -106.5 -136t-36.5 -183.5z M362 690v543h275q55 -23 88 -72t33 -110q0 -98 -78 -156l76 -205h-156l-59 172h-27v-172h-152zM514 977h72q23 18 22.5 57t-22.5 58h-72v-115z" />
<glyph unicode="&#xaf;" horiz-adv-x="1024" d="M254 1165v205h516v-205h-516z" />
<glyph unicode="&#xb0;" horiz-adv-x="645" d="M63 1319q0 186 164 266h193q164 -80 164 -266q0 -80 -43 -151.5t-121 -106.5h-193q-78 35 -121 106.5t-43 151.5zM254 1324q0 -62 37 -99h65q37 37 37 99t-37 97h-65q-37 -35 -37 -97z" />
<glyph unicode="&#xb1;" horiz-adv-x="704" d="M10 0h684v199h-684v-199zM10 594v199h684v-199h-684zM252 342v705h197v-705h-197z" />
<glyph unicode="&#xb4;" horiz-adv-x="1024" d="M299 1284l350 205l96 -211l-364 -160z" />
<glyph unicode="&#xb6;" horiz-adv-x="948" d="M51 852q0 387 334 582h487v-1198q0 -258 -61 -461h-270q61 223 61 452v916h-92v-836h-125q-156 74 -245 226.5t-89 318.5z" />
<glyph unicode="&#xb7;" horiz-adv-x="393" d="M82 604v254h229v-254h-229z" />
<glyph unicode="&#xb8;" horiz-adv-x="1024" d="M356 -367h93q18 12 19 47.5t-19 49.5h-52v147l68 154h172l-59 -154q31 -27 45 -45q45 -53 45 -131t-37 -137.5t-94 -95.5h-181v165z" />
<glyph unicode="&#xba;" horiz-adv-x="755" d="M40.5 1007.5q0.5 254.5 149.5 426.5h373q152 -174 152 -422q0 -109 -37 -217.5t-115 -180.5h-373q-150 139 -149.5 393.5zM305 1027q0 -132 45 -212h53q45 80 45.5 214t-47.5 200h-49q-47 -70 -47 -202z" />
<glyph unicode="&#xbb;" horiz-adv-x="995" d="M51 221l195 279l-174 295l182 100l248 -395l-269 -379zM473 221l195 279l-174 295l182 100l248 -395l-269 -379z" />
<glyph unicode="&#xbf;" horiz-adv-x="632" d="M57 -138.5q0 58.5 13.5 104.5t25.5 71l90 166q59 119 60 266v84h250v-92q0 -178 -90 -404q-31 -76 -40.5 -100.5t-9.5 -52.5q0 -37 39 -37h176v-254h-342q-94 39 -133 114.5t-39 134zM246 770v277h250v-277h-250z" />
<glyph unicode="&#xc0;" horiz-adv-x="1003" d="M20 0l277 1434h424l262 -1434h-274l-43 227h-324l-43 -227h-279zM268 1614l80 227l375 -168l-66 -178zM375 446h256l-47 244l-80 477h-4l-80 -477z" />
<glyph unicode="&#xc1;" horiz-adv-x="1003" d="M20 0l277 1434h424l262 -1434h-274l-43 227h-324l-43 -227h-279zM326 1673l374 168l78 -227l-387 -119zM375 446h256l-47 244l-80 477h-4l-80 -477z" />
<glyph unicode="&#xc2;" horiz-adv-x="1003" d="M20 0l277 1434h424l262 -1434h-274l-43 227h-324l-43 -227h-279zM205 1575l190 223h217l187 -227l-121 -80l-176 119l-176 -117zM375 446h256l-47 244l-80 477h-4l-80 -477z" />
<glyph unicode="&#xc3;" horiz-adv-x="1003" d="M20 0l277 1434h424l262 -1434h-274l-43 227h-324l-43 -227h-279zM233 1507v215q131 55 177 56l198 -56q41 0 162 29v-219q-125 -31 -172 -29l-197 51q-43 0 -168 -47zM375 446h256l-47 244l-80 477h-4l-80 -477z" />
<glyph unicode="&#xc4;" horiz-adv-x="1003" d="M20 0l277 1434h424l262 -1434h-274l-43 227h-324l-43 -227h-279zM190 1495v277h271v-277h-271zM375 446h256l-47 244l-80 477h-4l-80 -477zM545 1495v277h270v-277h-270z" />
<glyph unicode="&#xc5;" horiz-adv-x="1003" d="M20 0l275 1421q-45 66 -45 150q0 176 164 256h184q164 -80 164 -256q0 -78 -41 -141l262 -1430h-274l-43 227h-324l-43 -227h-279zM375 446h256l-47 244l-80 477h-4l-80 -477zM426 1573q0 -59 41 -100h76q43 43 43 102t-43 98h-76q-41 -41 -41 -100z" />
<glyph unicode="&#xc6;" horiz-adv-x="1382" d="M10 0l371 1434h934v-246h-455v-342h406v-238h-406v-370h463v-238h-743v348h-209l-82 -348h-279zM422 569h158v619h-13z" />
<glyph unicode="&#xc7;" horiz-adv-x="907" d="M61 722q0 206 78 396.5t232 315.5h485v-246h-360q-55 -63 -95.5 -204.5t-40.5 -270.5t40 -270.5t96 -204.5h360v-238h-221l-47 -123q31 -27 45 -45q45 -53 45 -131t-37 -137.5t-94 -95.5h-180v165h92q18 12 19 47.5t-19 49.5h-51v147l53 123h-125q-135 127 -205 321.5 t-70 400.5z" />
<glyph unicode="&#xc8;" horiz-adv-x="901" d="M98 0h744v238h-463v370h405v238h-405v342h455v246h-736v-1434zM246 1614l80 227l374 -168l-65 -178z" />
<glyph unicode="&#xc9;" horiz-adv-x="901" d="M98 0h744v238h-463v370h405v238h-405v342h455v246h-736v-1434zM262 1673l375 168l78 -227l-387 -119z" />
<glyph unicode="&#xca;" horiz-adv-x="901" d="M98 0h744v238h-463v370h405v238h-405v342h455v246h-736v-1434zM174 1575l191 223h217l186 -227l-121 -80l-176 119l-176 -117z" />
<glyph unicode="&#xcb;" horiz-adv-x="901" d="M98 0h744v238h-463v370h405v238h-405v342h455v246h-736v-1434zM154 1495v277h270v-277h-270zM508 1495v277h270v-277h-270z" />
<glyph unicode="&#xcc;" horiz-adv-x="477" d="M-55 1614l80 227l374 -168l-65 -178zM98 0h281v1434h-281v-1434z" />
<glyph unicode="&#xcd;" horiz-adv-x="477" d="M61 1673l375 168l78 -227l-387 -119zM98 0h281v1434h-281v-1434z" />
<glyph unicode="&#xce;" horiz-adv-x="477" d="M-59 1575l190 223h217l187 -227l-121 -80l-176 119l-177 -117zM98 0h281v1434h-281v-1434z" />
<glyph unicode="&#xcf;" horiz-adv-x="477" d="M-74 1495v277h271v-277h-271zM98 0h281v1434h-281v-1434zM281 1495v277h270v-277h-270z" />
<glyph unicode="&#xd0;" horiz-adv-x="1069" d="M27 612v217h96v605h594q291 -258 291 -699.5t-273 -734.5h-612v612h-96zM401 238h185q57 72 91 209t34 272q0 322 -121 469h-189v-359h179v-217h-179v-374z" />
<glyph unicode="&#xd1;" horiz-adv-x="1026" d="M98 0v1434h207l377 -824l10 4l-22 252v568h258v-1434h-191l-383 793l-10 -5l12 -241v-547h-258zM233 1507v215q131 55 177 56l198 -56q41 0 162 29v-219q-125 -31 -172 -29l-197 51q-43 0 -168 -47z" />
<glyph unicode="&#xd2;" horiz-adv-x="1110" d="M61 716q0 208 70 404.5t213 313.5h422q143 -117 213 -313.5t70 -404.5t-68 -394.5t-215 -321.5h-422q-147 135 -215 321.5t-68 394.5zM281 1614l79 227l375 -168l-65 -178zM358 714.5q0 -149.5 36 -283.5t87 -193h148q51 59 87 193t36 283.5t-35 281.5t-86 192h-150 q-51 -59 -87 -191.5t-36 -282z" />
<glyph unicode="&#xd3;" horiz-adv-x="1110" d="M61 716q0 208 70 404.5t213 313.5h422q143 -117 213 -313.5t70 -404.5t-68 -394.5t-215 -321.5h-422q-147 135 -215 321.5t-68 394.5zM358 714.5q0 -149.5 36 -283.5t87 -193h148q51 59 87 193t36 283.5t-35 281.5t-86 192h-150q-51 -59 -87 -191.5t-36 -282zM358 1673 l375 168l78 -227l-387 -119z" />
<glyph unicode="&#xd4;" horiz-adv-x="1110" d="M61 716q0 208 70 404.5t213 313.5h422q143 -117 213 -313.5t70 -404.5t-68 -394.5t-215 -321.5h-422q-147 135 -215 321.5t-68 394.5zM258 1575l191 223h217l186 -227l-121 -80l-176 119l-176 -117zM358 714.5q0 -149.5 36 -283.5t87 -193h148q51 59 87 193t36 283.5 t-35 281.5t-86 192h-150q-51 -59 -87 -191.5t-36 -282z" />
<glyph unicode="&#xd5;" horiz-adv-x="1110" d="M61 716q0 208 70 404.5t213 313.5h422q143 -117 213 -313.5t70 -404.5t-68 -394.5t-215 -321.5h-422q-147 135 -215 321.5t-68 394.5zM287 1507v215q131 55 176 56l199 -56q41 0 161 29v-219q-125 -31 -172 -29l-196 51q-43 0 -168 -47zM358 714.5q0 -149.5 36 -283.5 t87 -193h148q51 59 87 193t36 283.5t-35 281.5t-86 192h-150q-51 -59 -87 -191.5t-36 -282z" />
<glyph unicode="&#xd6;" horiz-adv-x="1110" d="M61 716q0 208 70 404.5t213 313.5h422q143 -117 213 -313.5t70 -404.5t-68 -394.5t-215 -321.5h-422q-147 135 -215 321.5t-68 394.5zM244 1495v277h270v-277h-270zM358 714.5q0 -149.5 36 -283.5t87 -193h148q51 59 87 193t36 283.5t-35 281.5t-86 192h-150 q-51 -59 -87 -191.5t-36 -282zM598 1495v277h270v-277h-270z" />
<glyph unicode="&#xd7;" horiz-adv-x="657" d="M10 872l140 140l497 -498l-139 -139zM18 522l484 484l141 -142l-483 -483z" />
<glyph unicode="&#xd8;" horiz-adv-x="1110" d="M61 696q0 227 70 424t213 314h295l35 102h252l-66 -199q188 -242 189 -641q0 -188 -68 -374.5t-215 -321.5h-279l-32 -102h-252l61 186q-203 252 -203 612zM358 714.5q0 -149.5 36 -283.5t87 -193h148q51 59 87 193t36 283.5t-35 281.5t-86 192h-150q-51 -59 -87 -191.5 t-36 -282z" />
<glyph unicode="&#xd9;" horiz-adv-x="1077" d="M88 588v846h281v-949q0 -98 19.5 -148t64.5 -99h172q45 49 64.5 99t19.5 148v949h280v-846q0 -104 -5 -162.5t-26 -142.5q-35 -150 -192 -283h-455q-158 129 -192 283q-31 125 -31 305zM305 1614l80 227l375 -168l-66 -178z" />
<glyph unicode="&#xda;" horiz-adv-x="1077" d="M88 588v846h281v-949q0 -98 19.5 -148t64.5 -99h172q45 49 64.5 99t19.5 148v949h280v-846q0 -104 -5 -162.5t-26 -142.5q-35 -150 -192 -283h-455q-158 129 -192 283q-31 125 -31 305zM362 1673l375 168l78 -227l-387 -119z" />
<glyph unicode="&#xdb;" horiz-adv-x="1077" d="M88 588v846h281v-949q0 -98 19.5 -148t64.5 -99h172q45 49 64.5 99t19.5 148v949h280v-846q0 -104 -5 -162.5t-26 -142.5q-35 -150 -192 -283h-455q-158 129 -192 283q-31 125 -31 305zM242 1575l190 223h217l187 -227l-121 -80l-176 119l-177 -117z" />
<glyph unicode="&#xdc;" horiz-adv-x="1077" d="M88 588v846h281v-949q0 -98 19.5 -148t64.5 -99h172q45 49 64.5 99t19.5 148v949h280v-846q0 -104 -5 -162.5t-26 -142.5q-35 -150 -192 -283h-455q-158 129 -192 283q-31 125 -31 305zM227 1495v277h271v-277h-271zM582 1495v277h270v-277h-270z" />
<glyph unicode="&#xdd;" horiz-adv-x="905" d="M0 1434h279l127 -437l43 -252h8l43 252l127 437h278l-303 -957v-477h-299v477zM299 1673l375 168l78 -227l-387 -119z" />
<glyph unicode="&#xde;" horiz-adv-x="1005" d="M98 0v1434h277v-185h278q139 -61 220 -188t81 -296t-84 -312.5t-247 -202.5h-248v-250h-277zM375 489h182q113 92 113 265q0 76 -31 145.5t-70 99.5h-194v-510z" />
<glyph unicode="&#xdf;" horiz-adv-x="1040" d="M68 0v846q0 207 39.5 346t175.5 242h295q150 -125 184 -279q29 -131 29 -309v-37q250 -82 249 -406q0 -106 -62.5 -225t-174.5 -178h-363v215h242q33 23 57.5 75.5t24.5 115.5q0 147 -82 192h-162v313q0 199 -57 308h-68q-55 -111 -55 -308v-911h-272z" />
<glyph unicode="&#xe0;" d="M59 331q0 216 179 341h192q80 0 150 -49v102q0 80 -70 106h-369v216h508q123 -74 162 -169.5t39 -259.5v-307q0 -170 8 -311h-233l-37 74q-80 -74 -226 -74h-129q-174 115 -174 331zM199 1278l96 211l350 -205l-82 -166zM319 340q0 -80 46 -125h217v258h-220 q-43 -53 -43 -133z" />
<glyph unicode="&#xe1;" d="M59 331q0 216 179 341h192q80 0 150 -49v102q0 80 -70 106h-369v216h508q123 -74 162 -169.5t39 -259.5v-307q0 -170 8 -311h-233l-37 74q-80 -74 -226 -74h-129q-174 115 -174 331zM258 1284l350 205l96 -211l-364 -160zM319 340q0 -80 46 -125h217v258h-220 q-43 -53 -43 -133z" />
<glyph unicode="&#xe2;" d="M59 331q0 216 179 341h192q80 0 150 -49v102q0 80 -70 106h-369v216h508q123 -74 162 -169.5t39 -259.5v-307q0 -170 8 -311h-233l-37 74q-80 -74 -226 -74h-129q-174 115 -174 331zM166 1192l164 278h242l166 -278l-131 -68l-156 158l-156 -158zM319 340q0 -80 46 -125 h217v258h-220q-43 -53 -43 -133z" />
<glyph unicode="&#xe3;" d="M59 331q0 216 179 341h192q80 0 150 -49v102q0 80 -70 106h-369v216h508q123 -74 162 -169.5t39 -259.5v-307q0 -170 8 -311h-233l-37 74q-80 -74 -226 -74h-129q-174 115 -174 331zM182 1145v205q131 55 176 55l199 -55q41 0 162 28v-209q-125 -30 -172 -28l-197 51 q-43 0 -168 -47zM319 340q0 -80 46 -125h217v258h-220q-43 -53 -43 -133z" />
<glyph unicode="&#xe4;" d="M59 331q0 216 179 341h192q80 0 150 -49v102q0 80 -70 106h-369v216h508q123 -74 162 -169.5t39 -259.5v-307q0 -170 8 -311h-233l-37 74q-80 -74 -226 -74h-129q-174 115 -174 331zM139 1157v277h271v-277h-271zM319 340q0 -80 46 -125h217v258h-220q-43 -53 -43 -133z M494 1157v277h270v-277h-270z" />
<glyph unicode="&#xe5;" d="M59 331q0 216 179 341h192q80 0 150 -49v102q0 80 -70 106h-369v216h508q123 -74 162 -169.5t39 -259.5v-307q0 -170 8 -311h-233l-37 74q-80 -74 -226 -74h-129q-174 115 -174 331zM195 1370q0 176 164 256h184q164 -80 164 -256q0 -78 -43 -144.5t-121 -103.5h-184 q-78 37 -121 103.5t-43 144.5zM319 340q0 -80 46 -125h217v258h-220q-43 -53 -43 -133zM371 1372.5q0 -59.5 41 -100.5h76q43 43 43 102.5t-43 98.5h-76q-41 -41 -41 -100.5z" />
<glyph unicode="&#xe6;" horiz-adv-x="1449" d="M59 331q0 216 179 341h192q80 0 150 -49v102q0 80 -70 106h-369v216h490q68 -29 110 -91q33 37 103 91h321q137 -100 186.5 -213t49.5 -227.5t-19 -196.5h-510q6 -47 36 -108.5t65 -88.5h387v-213h-520q-41 27 -95 80q-90 -80 -219 -80h-293q-174 115 -174 331zM319 340 q0 -80 46 -125h284q-61 121 -67 258h-220q-43 -53 -43 -133zM858 602h293q0 55 -19.5 125.5t-50.5 103.5h-153q-31 -37 -50.5 -102t-19.5 -127z" />
<glyph unicode="&#xe7;" horiz-adv-x="798" d="M59 532.5q0 339.5 258 514.5h433v-216h-308q-100 -104 -100 -299q0 -86 26.5 -175t73.5 -142h308v-215h-152l-47 -123q31 -27 45 -45q45 -53 45 -131t-37 -137.5t-94 -95.5h-180v165h92q18 12 19 47.5t-19 49.5h-51v147l53 123h-123q-242 193 -242 532.5z" />
<glyph unicode="&#xe8;" horiz-adv-x="929" d="M59 526q0 336 254 521h332q137 -100 186.5 -213t49.5 -227.5t-19 -196.5h-510q6 -47 36 -107.5t65 -87.5h387v-215h-521q-143 96 -201.5 238.5t-58.5 287.5zM205 1278l96 211l350 -205l-82 -166zM338 602h293q4 61 -16.5 127.5t-53.5 101.5h-153q-31 -37 -50.5 -102 t-19.5 -127z" />
<glyph unicode="&#xe9;" horiz-adv-x="929" d="M59 526q0 336 254 521h332q137 -100 186.5 -213t49.5 -227.5t-19 -196.5h-510q6 -47 36 -107.5t65 -87.5h387v-215h-521q-143 96 -201.5 238.5t-58.5 287.5zM305 1284l350 205l96 -211l-364 -160zM338 602h293q4 61 -16.5 127.5t-53.5 101.5h-153q-31 -37 -50.5 -102 t-19.5 -127z" />
<glyph unicode="&#xea;" horiz-adv-x="929" d="M59 526q0 336 254 521h332q137 -100 186.5 -213t49.5 -227.5t-19 -196.5h-510q6 -47 36 -107.5t65 -87.5h387v-215h-521q-143 96 -201.5 238.5t-58.5 287.5zM193 1192l163 278h242l166 -278l-131 -68l-156 158l-155 -158zM338 602h293q4 61 -16.5 127.5t-53.5 101.5h-153 q-31 -37 -50.5 -102t-19.5 -127z" />
<glyph unicode="&#xeb;" horiz-adv-x="929" d="M59 526q0 336 254 521h332q137 -100 186.5 -213t49.5 -227.5t-19 -196.5h-510q6 -47 36 -107.5t65 -87.5h387v-215h-521q-143 96 -201.5 238.5t-58.5 287.5zM166 1157v277h270v-277h-270zM338 602h293q4 61 -16.5 127.5t-53.5 101.5h-153q-31 -37 -50.5 -102t-19.5 -127z M520 1157v277h270v-277h-270z" />
<glyph unicode="&#xec;" horiz-adv-x="446" d="M-81 1278l96 211l350 -205l-82 -166zM88 0v1047h270v-1047h-270z" />
<glyph unicode="&#xed;" horiz-adv-x="446" d="M16 1284l351 205l96 -211l-365 -160zM88 0h270v1047h-270v-1047z" />
<glyph unicode="&#xee;" horiz-adv-x="446" d="M-62 1192l164 278h242l166 -278l-131 -68l-156 158l-156 -158zM88 0v1047h270v-1047h-270z" />
<glyph unicode="&#xef;" horiz-adv-x="446" d="M-104 1157v277h270v-277h-270zM88 0h270v1047h-270v-1047zM250 1157v277h270v-277h-270z" />
<glyph unicode="&#xf0;" horiz-adv-x="966" d="M59 538q0 173 52.5 293.5t148.5 215.5h176q98 0 172 -62q-25 76 -57 152h-232v180h150q-8 12 -29.5 53t-33.5 64h258l59 -117h197v-180h-115q106 -262 106 -514t-53 -386.5t-147 -236.5h-457q-90 86 -142.5 225.5t-52.5 312.5zM336 515q0 -187 74 -300h161q68 154 68 393 q0 129 -16 223h-211q-76 -129 -76 -316z" />
<glyph unicode="&#xf1;" horiz-adv-x="995" d="M88 0v1047h213l37 -74q45 41 85 57.5t120 16.5h217q90 -115 122.5 -230t32.5 -287v-530h-272v551q0 195 -53 280h-230v-831h-272zM195 1145v205q131 55 176 55l198 -55q41 0 162 28v-209q-125 -30 -172 -28l-197 51q-43 0 -167 -47z" />
<glyph unicode="&#xf2;" horiz-adv-x="974" d="M59 520q0 166 46.5 289t146.5 238h479q106 -123 145 -239t39 -288q1 -330 -204 -520h-447q-205 190 -205 520zM248 1278l96 211l350 -205l-82 -166zM336 535.5q0 -191.5 74 -320.5h155q74 143 74 325.5t-76 290.5h-153q-74 -104 -74 -295.5z" />
<glyph unicode="&#xf3;" horiz-adv-x="974" d="M59 520q0 166 46.5 289t146.5 238h479q106 -123 145 -239t39 -288q1 -330 -204 -520h-447q-205 190 -205 520zM287 1284l350 205l96 -211l-364 -160zM336 535.5q0 -191.5 74 -320.5h155q74 143 74 325.5t-76 290.5h-153q-74 -104 -74 -295.5z" />
<glyph unicode="&#xf4;" horiz-adv-x="974" d="M59 520q0 166 46.5 289t146.5 238h479q106 -123 145 -239t39 -288q1 -330 -204 -520h-447q-205 190 -205 520zM194 1192l164 278h242l166 -278l-131 -68l-156 158l-156 -158zM336 535.5q0 -191.5 74 -320.5h155q74 143 74 325.5t-76 290.5h-153q-74 -104 -74 -295.5z" />
<glyph unicode="&#xf5;" horiz-adv-x="974" d="M59 520q0 166 46.5 289t146.5 238h479q106 -123 145 -239t39 -288q1 -330 -204 -520h-447q-205 190 -205 520zM211 1145v205q131 55 176 55l199 -55q41 0 162 28v-209q-126 -30 -173 -28l-196 51q-43 0 -168 -47zM336 535.5q0 -191.5 74 -320.5h155q74 143 74 325.5 t-76 290.5h-153q-74 -104 -74 -295.5z" />
<glyph unicode="&#xf6;" horiz-adv-x="974" d="M59 520q0 -330 205 -520h447q205 190 204 520q0 172 -38.5 288t-145.5 239h-479q-100 -115 -146.5 -238t-46.5 -289zM168 1157v277h270v-277h-270zM336 535.5q0 191.5 74 295.5h153q76 -109 76 -291t-74 -325h-155q-74 129 -74 320.5zM522 1157v277h271v-277h-271z" />
<glyph unicode="&#xf7;" horiz-adv-x="704" d="M10 592h684v199h-684v-199zM195 369q0 114 96 161h123q96 -47 96 -161q0 -39 -26.5 -86t-69.5 -68h-123q-43 20 -69.5 66.5t-26.5 87.5zM195 1006q0 114 96 161h123q96 -49 96 -161q0 -39 -26.5 -86.5t-69.5 -67.5h-123q-43 20 -69.5 66.5t-26.5 87.5z" />
<glyph unicode="&#xf8;" horiz-adv-x="974" d="M59 520q0 166 46.5 289t146.5 238h295l51 147h252l-70 -207q76 -104 105.5 -209.5t29.5 -257.5q0 -330 -204 -520h-277l-51 -158h-252l74 221q-145 182 -146 457zM336 535.5q0 -191.5 74 -320.5h155q74 143 74 325.5t-76 290.5h-153q-74 -104 -74 -295.5z" />
<glyph unicode="&#xf9;" horiz-adv-x="976" d="M80 516v531h272v-551q0 -186 74 -281h190v832h273v-1047h-215l-37 74q-77 -74 -186 -74h-215q-90 115 -123 229.5t-33 286.5zM207 1278l96 211l350 -205l-82 -166z" />
<glyph unicode="&#xfa;" horiz-adv-x="976" d="M80 516v531h272v-551q0 -186 74 -281h190v832h273v-1047h-215l-37 74q-77 -74 -186 -74h-215q-90 115 -123 229.5t-33 286.5zM332 1284l350 205l96 -211l-364 -160z" />
<glyph unicode="&#xfb;" horiz-adv-x="976" d="M80 516v531h272v-551q0 -186 74 -281h190v832h273v-1047h-215l-37 74q-77 -74 -186 -74h-215q-90 115 -123 229.5t-33 286.5zM194 1192l164 278h242l166 -278l-131 -68l-156 158l-156 -158z" />
<glyph unicode="&#xfc;" horiz-adv-x="976" d="M80 516v531h272v-551q0 -186 74 -281h190v832h273v-1047h-215l-37 74q-77 -74 -186 -74h-215q-90 115 -123 229.5t-33 286.5zM168 1157v277h270v-277h-270zM522 1157v277h271v-277h-271z" />
<glyph unicode="&#xfd;" horiz-adv-x="968" d="M72 -92h221q43 12 71.5 43t59.5 88l12 22h-141q-98 80 -155.5 216t-57.5 298v472h272v-474q0 -178 72 -297h121q68 117 67 297v474h273v-457q0 -154 -40 -270.5t-130 -264.5l-137 -223q-37 -63 -78 -94t-107 -45h-323v215zM338 1284l350 205l96 -211l-364 -160z" />
<glyph unicode="&#xfe;" horiz-adv-x="970" d="M88 -307v1741h268v-441q66 53 187 54h184q184 -180 184 -516t-204 -531h-175q-113 0 -176 57v-364h-268zM356 215h201q76 129 76 313.5t-78 302.5h-199v-616z" />
<glyph unicode="&#xff;" horiz-adv-x="968" d="M72 -92h221q43 12 71.5 43t59.5 88l12 22h-141q-98 80 -155.5 216t-57.5 298v472h272v-474q0 -178 72 -297h121q68 117 67 297v474h273v-457q0 -154 -40 -270.5t-130 -264.5l-137 -223q-37 -63 -78 -94t-107 -45h-323v215zM164 1157v277h270v-277h-270zM518 1157v277h270 v-277h-270z" />
<glyph unicode="&#x100;" horiz-adv-x="1003" d="M20 0l277 1434h424l262 -1434h-274l-43 227h-324l-43 -227h-279zM244 1511v205h516v-205h-516zM375 446h256l-47 244l-80 477h-4l-80 -477z" />
<glyph unicode="&#x101;" d="M59 331q0 216 179 341h192q80 0 150 -49v102q0 80 -70 106h-369v216h508q123 -74 162 -169.5t39 -259.5v-307q0 -170 8 -311h-233l-37 74q-80 -74 -226 -74h-129q-174 115 -174 331zM172 1165v205h516v-205h-516zM319 340q0 -80 46 -125h217v258h-220q-43 -53 -43 -133z " />
<glyph unicode="&#x102;" horiz-adv-x="1003" d="M20 0l277 1434h424l262 -1434h-274l-43 227h-324l-43 -227h-279zM201 1800h188q20 -80 74 -106h80q53 27 73 106h191q-8 -221 -215 -305h-176q-203 82 -215 305zM375 446h256l-47 244l-80 477h-4l-80 -477z" />
<glyph unicode="&#x103;" d="M59 331q0 216 179 341h192q80 0 150 -49v102q0 80 -70 106h-369v216h508q123 -74 162 -169.5t39 -259.5v-307q0 -170 8 -311h-233l-37 74q-80 -74 -226 -74h-129q-174 115 -174 331zM125 1448h192q14 -86 31 -104.5t33 -26.5h98q35 18 45 49q12 43 19 82h192 q-14 -244 -215 -326h-180q-201 82 -215 326zM319 340q0 -80 46 -125h217v258h-220q-43 -53 -43 -133z" />
<glyph unicode="&#x104;" horiz-adv-x="1003" d="M20 0l277 1434h424l262 -1434l-129 -211q-12 -20 -12 -34.5t20 -14.5h103v-205h-293q-76 47 -76 141.5t102 241.5l54 82h-43l-43 227h-324l-43 -227h-279zM375 446h256l-47 244l-80 477h-4l-80 -477z" />
<glyph unicode="&#x105;" d="M59 331q0 216 179 341h192q80 0 150 -49v102q0 80 -70 106h-369v216h508q123 -74 162 -169.5t39 -259.5v-307q0 -170 8 -311l-113 -211q-12 -20 -12 -34.5t21 -14.5h106v-205h-313q-76 47 -76 139q0 59 25 109l28 59q8 14 45 76l52 88l-33 68q-80 -74 -226 -74h-129 q-174 115 -174 331zM319 340q0 -80 46 -125h217v258h-220q-43 -53 -43 -133z" />
<glyph unicode="&#x106;" horiz-adv-x="907" d="M61 722q0 206 78 396.5t232 315.5h485v-246h-360q-55 -63 -95.5 -204.5t-40.5 -270.5t40.5 -270.5t95.5 -204.5h360v-238h-520q-135 127 -205 321.5t-70 400.5zM408 1673l374 168l78 -227l-387 -119z" />
<glyph unicode="&#x107;" horiz-adv-x="798" d="M59 532.5q0 339.5 258 514.5h433v-216h-308q-100 -104 -100 -299q0 -86 26.5 -175t73.5 -142h308v-215h-449q-242 193 -242 532.5zM319 1284l350 205l96 -211l-364 -160z" />
<glyph unicode="&#x108;" horiz-adv-x="907" d="M61 722q0 206 78 396.5t232 315.5h485v-246h-360q-55 -63 -95.5 -204.5t-40.5 -270.5t40.5 -270.5t95.5 -204.5h360v-238h-520q-135 127 -205 321.5t-70 400.5zM268 1575l191 223h217l186 -227l-121 -80l-176 119l-176 -117z" />
<glyph unicode="&#x109;" horiz-adv-x="798" d="M59 532.5q0 339.5 258 514.5h433v-216h-308q-100 -104 -100 -299q0 -86 26.5 -175t73.5 -142h308v-215h-449q-242 193 -242 532.5zM227 1192l164 278h242l166 -278l-131 -68l-156 158l-156 -158z" />
<glyph unicode="&#x10a;" horiz-adv-x="907" d="M61 722q0 206 78 396.5t232 315.5h485v-246h-360q-55 -63 -95.5 -204.5t-40.5 -270.5t40.5 -270.5t95.5 -204.5h360v-238h-520q-135 127 -205 321.5t-70 400.5zM477 1495v277h271v-277h-271z" />
<glyph unicode="&#x10b;" horiz-adv-x="798" d="M59 533q0 -340 242 -533h449v215h-308q-47 53 -73.5 142t-26.5 175q0 195 100 299h308v216h-433q-258 -174 -258 -514zM391 1157v277h271v-277h-271z" />
<glyph unicode="&#x10c;" horiz-adv-x="907" d="M61 722q0 206 78 396.5t232 315.5h485v-246h-360q-55 -63 -95.5 -204.5t-40.5 -270.5t40.5 -270.5t95.5 -204.5h360v-238h-520q-135 127 -205 321.5t-70 400.5zM289 1714l121 82l176 -117l176 119l121 -80l-187 -227h-217z" />
<glyph unicode="&#x10d;" horiz-adv-x="798" d="M59 533q0 -340 242 -533h449v215h-308q-47 53 -73.5 142t-26.5 175q0 195 100 299h308v216h-433q-258 -174 -258 -514zM229 1403l129 67l156 -157l156 157l131 -67l-166 -279h-242z" />
<glyph unicode="&#x10e;" horiz-adv-x="1044" d="M98 0h613q272 293 272 734.5t-291 699.5h-594v-1434zM152 1714l120 82l177 -117l176 119l120 -80l-186 -227h-217zM377 238v950h188q121 -147 121 -469q0 -135 -34 -272t-91 -209h-184z" />
<glyph unicode="&#x10f;" horiz-adv-x="1140" d="M59 538q0 173 52.5 293.5t148.5 215.5h176q109 0 172 -58v445h273v-1434h-207l-37 74q-45 -41 -85 -57.5t-120 -16.5h-178q-90 86 -142.5 225.5t-52.5 312.5zM336 515q0 -187 74 -300h198v616h-196q-76 -129 -76 -316zM950 1026h170l41 408h-211v-408z" />
<glyph unicode="&#x110;" horiz-adv-x="1069" d="M27 612v217h96v605h594q291 -258 291 -699.5t-273 -734.5h-612v612h-96zM401 238h185q57 72 91 209t34 272q0 322 -121 469h-189v-359h179v-217h-179v-374z" />
<glyph unicode="&#x111;" horiz-adv-x="968" d="M59 538q0 173 52.5 293.5t148.5 215.5h176q109 0 172 -58v150h-250v190h250v105h273v-105h84v-190h-84v-1139h-207l-37 74q-45 -41 -85 -57.5t-120 -16.5h-178q-90 86 -142.5 225.5t-52.5 312.5zM336 515q0 -187 74 -300h198v616h-196q-76 -129 -76 -316z" />
<glyph unicode="&#x112;" horiz-adv-x="901" d="M98 0h744v238h-463v370h405v238h-405v342h455v246h-736v-1434zM213 1511v205h516v-205h-516z" />
<glyph unicode="&#x113;" horiz-adv-x="929" d="M59 526q0 336 254 521h332q137 -100 186.5 -213t49.5 -227.5t-19 -196.5h-510q6 -47 36 -107.5t65 -87.5h387v-215h-521q-143 96 -201.5 238.5t-58.5 287.5zM225 1165v205h516v-205h-516zM338 602h293q4 61 -16.5 127.5t-53.5 101.5h-153q-31 -37 -50.5 -102t-19.5 -127z " />
<glyph unicode="&#x114;" horiz-adv-x="901" d="M98 0v1434h736v-246h-455v-342h405v-238h-405v-370h463v-238h-744zM166 1800h188q20 -80 74 -106h80q53 27 74 106h190q-8 -221 -215 -305h-176q-203 82 -215 305z" />
<glyph unicode="&#x115;" horiz-adv-x="929" d="M59 526q0 336 254 521h332q137 -100 186.5 -213t49.5 -227.5t-19 -196.5h-510q6 -47 36 -107.5t65 -87.5h387v-215h-521q-143 96 -201.5 238.5t-58.5 287.5zM174 1448h193q14 -86 30.5 -104.5t32.5 -26.5h98q35 18 45 49q12 43 19 82h192q-14 -244 -215 -326h-180 q-201 82 -215 326zM338 602h293q4 61 -16.5 127.5t-53.5 101.5h-153q-31 -37 -50.5 -102t-19.5 -127z" />
<glyph unicode="&#x116;" horiz-adv-x="901" d="M98 0h744v238h-463v370h405v238h-405v342h455v246h-736v-1434zM340 1495v277h270v-277h-270z" />
<glyph unicode="&#x117;" horiz-adv-x="929" d="M59 526q0 336 254 521h332q137 -100 186.5 -213t49.5 -227.5t-19 -196.5h-510q6 -47 36 -107.5t65 -87.5h387v-215h-521q-143 96 -201.5 238.5t-58.5 287.5zM338 602h293q4 61 -16.5 127.5t-53.5 101.5h-153q-31 -37 -50.5 -102t-19.5 -127zM342 1157v277h270v-277h-270z " />
<glyph unicode="&#x118;" horiz-adv-x="901" d="M98 0v1434h736v-246h-455v-342h405v-238h-405v-370h463v-238l-154 -211q-12 -20 -12 -34.5t20 -14.5h113v-205h-293q-76 47 -76 142.5t97 226.5l71 96h-510z" />
<glyph unicode="&#x119;" horiz-adv-x="929" d="M59 526q0 336 254 521h332q137 -100 186.5 -213t49.5 -227.5t-19 -196.5h-510q6 -47 36 -107.5t65 -87.5h387v-215l-172 -256l8 -14h131v-195h-313q-76 47 -76 139q0 55 22.5 98.5t81.5 121.5l82 106h-285q-143 96 -201.5 238.5t-58.5 287.5zM338 602h293 q4 61 -16.5 127.5t-53.5 101.5h-153q-31 -37 -50.5 -102t-19.5 -127z" />
<glyph unicode="&#x11a;" horiz-adv-x="901" d="M98 0h744v238h-463v370h405v238h-405v342h455v246h-736v-1434zM180 1714l121 82l176 -117l176 119l121 -80l-186 -227h-217z" />
<glyph unicode="&#x11b;" horiz-adv-x="929" d="M59 526q0 336 254 521h332q137 -100 186.5 -213t49.5 -227.5t-19 -196.5h-510q6 -47 36 -107.5t65 -87.5h387v-215h-521q-143 96 -201.5 238.5t-58.5 287.5zM192 1403l129 67l156 -157l156 157l131 -67l-166 -279h-242zM338 602h293q4 61 -16.5 127.5t-53.5 101.5h-153 q-31 -37 -50.5 -102t-19.5 -127z" />
<glyph unicode="&#x11c;" horiz-adv-x="1011" d="M61 711.5q0 203.5 82 402.5t230 320h497v-246h-381q-53 -61 -92 -193.5t-39 -281t36 -282.5t89 -193h197v557h270v-344q0 -283 -172 -451h-434q-147 135 -215 321.5t-68 390zM250 1575l190 223h217l187 -227l-121 -80l-176 119l-176 -117z" />
<glyph unicode="&#x11d;" horiz-adv-x="960" d="M59 522q0 188 53.5 308t155.5 217h152q133 0 211 -86l37 86h213v-938q0 -156 -40 -250.5t-159 -165.5h-467v213h350q51 31 51 98v121q-76 -63 -241 -64h-150q-166 199 -166 461zM236 1192l163 278h242l166 -278l-131 -68l-156 158l-155 -158zM336 539.5 q0 -164.5 63 -271.5h209v563h-198q-74 -127 -74 -291.5z" />
<glyph unicode="&#x11e;" horiz-adv-x="1011" d="M61 711.5q0 203.5 82 402.5t230 320h497v-246h-381q-53 -61 -92 -193.5t-39 -281t36 -282.5t89 -193h197v557h270v-344q0 -283 -172 -451h-434q-147 135 -215 321.5t-68 390zM256 1800h188q20 -80 74 -106h80q53 27 74 106h190q-8 -221 -215 -305h-176q-203 82 -215 305z " />
<glyph unicode="&#x11f;" horiz-adv-x="960" d="M59 522q0 188 53.5 308t155.5 217h152q133 0 211 -86l37 86h213v-938q0 -156 -40 -250.5t-159 -165.5h-467v213h350q51 31 51 98v121q-76 -63 -241 -64h-150q-166 199 -166 461zM215 1448h192q14 -86 30.5 -104.5t33.5 -26.5h98q35 18 45 49q12 43 19 82h192 q-14 -244 -215 -326h-180q-201 82 -215 326zM336 539.5q0 -164.5 63 -271.5h209v563h-198q-74 -127 -74 -291.5z" />
<glyph unicode="&#x120;" horiz-adv-x="1011" d="M61 711.5q0 203.5 82 402.5t230 320h497v-246h-381q-53 -61 -92 -193.5t-39 -281t36 -282.5t89 -193h197v557h270v-344q0 -283 -172 -451h-434q-147 135 -215 321.5t-68 390zM430 1495v277h270v-277h-270z" />
<glyph unicode="&#x121;" horiz-adv-x="960" d="M59 522q0 188 53.5 308t155.5 217h152q133 0 211 -86l37 86h213v-938q0 -156 -40 -250.5t-159 -165.5h-467v213h350q51 31 51 98v121q-76 -63 -241 -64h-150q-166 199 -166 461zM336 539.5q0 -164.5 63 -271.5h209v563h-198q-74 -127 -74 -291.5zM406 1157v277h270v-277 h-270z" />
<glyph unicode="&#x122;" horiz-adv-x="1011" d="M61 711.5q0 203.5 82 402.5t230 320h497v-246h-381q-53 -61 -92 -193.5t-39 -281t36 -282.5t89 -193h197v557h270v-344q0 -283 -172 -451h-434q-147 135 -215 321.5t-68 390zM436 -135h246v-88q0 -156 -24.5 -228.5t-118.5 -201.5l-95 53q59 100 82 184h-90v281z" />
<glyph unicode="&#x123;" horiz-adv-x="960" d="M59 522q0 188 53.5 308t155.5 217h152q133 0 211 -86l37 86h213v-938q0 -156 -40 -250.5t-159 -165.5h-467v213h350q51 31 51 98v121q-76 -63 -241 -64h-150q-166 199 -166 461zM336 539.5q0 -164.5 63 -271.5h209v563h-198q-74 -127 -74 -291.5zM387 1122v88 q0 156 24.5 228.5t118.5 201.5l95 -53q-59 -100 -82 -184h90v-281h-246z" />
<glyph unicode="&#x124;" horiz-adv-x="1085" d="M98 0h281v594h328v-594h280v1434h-280v-578h-328v578h-281v-1434zM246 1575l190 223h217l187 -227l-121 -80l-176 119l-176 -117z" />
<glyph unicode="&#x125;" horiz-adv-x="995" d="M-82 1575l191 223h217l186 -227l-121 -80l-176 119l-176 -117zM88 0v1434h272v-461q45 41 85 57.5t120 16.5h195q90 -115 122.5 -230t32.5 -287v-530h-272v551q0 195 -53 280h-230v-831h-272z" />
<glyph unicode="&#x126;" horiz-adv-x="1114" d="M27 1026v234h86v174h280v-174h328v174h280v-174h86v-234h-86v-1026h-280v594h-328v-594h-280v1026h-86zM393 856h328v170h-328v-170z" />
<glyph unicode="&#x127;" horiz-adv-x="995" d="M-20 1139v190h108v105h272v-105h226v-190h-226v-166q45 41 85 57.5t120 16.5h195q90 -115 122.5 -230t32.5 -287v-530h-272v551q0 195 -53 280h-230v-831h-272v1139h-108z" />
<glyph unicode="&#x128;" horiz-adv-x="477" d="M-31 1507v215q131 55 176 56l199 -56q41 0 162 29v-219q-125 -31 -172 -29l-197 51q-43 0 -168 -47zM98 0v1434h281v-1434h-281z" />
<glyph unicode="&#x129;" horiz-adv-x="446" d="M-61 1145v205q131 55 176 55l198 -55q41 0 162 28v-209q-125 -30 -172 -28l-196 51q-43 0 -168 -47zM88 0v1047h270v-1047h-270z" />
<glyph unicode="&#x12a;" horiz-adv-x="477" d="M-20 1511v205h516v-205h-516zM98 0h281v1434h-281v-1434z" />
<glyph unicode="&#x12b;" horiz-adv-x="446" d="M-51 1165v205h516v-205h-516zM88 0h270v1047h-270v-1047z" />
<glyph unicode="&#x12c;" horiz-adv-x="477" d="M-66 1800h189q20 -80 74 -106h79q53 27 74 106h191q-8 -221 -215 -305h-176q-204 82 -216 305zM98 0v1434h281v-1434h-281z" />
<glyph unicode="&#x12d;" horiz-adv-x="446" d="M-98 1448h192q14 -86 30.5 -104.5t33.5 -26.5h98q35 18 45 49q12 43 19 82h192q-14 -244 -215 -326h-180q-201 82 -215 326zM88 0v1047h270v-1047h-270z" />
<glyph unicode="&#x12e;" horiz-adv-x="477" d="M2 -326q0 59 25 109l30 59q6 14 43 76l47 82h-49v1434h281v-1434l-131 -260l8 -10h135v-195h-313q-76 47 -76 139z" />
<glyph unicode="&#x12f;" horiz-adv-x="446" d="M-20 -326q0 59 24 109l29 59q8 14 45 76l47 82h-37v1047h270v-1047l-133 -260l8 -10h136v-195h-314q-76 47 -75 139zM88 1157v277h270v-277h-270z" />
<glyph unicode="&#x130;" horiz-adv-x="477" d="M98 0h281v1434h-281v-1434zM102 1495v277h271v-277h-271z" />
<glyph unicode="&#x131;" horiz-adv-x="446" d="M88 0v1047h270v-1047h-270z" />
<glyph unicode="&#x132;" horiz-adv-x="1132" d="M98 0v1434h281v-1434h-281zM498 0v238h211q37 47 47 109.5t10 252.5v834h281v-738q0 -137 -5.5 -212.5t-25.5 -172.5q-39 -182 -195 -311h-323z" />
<glyph unicode="&#x134;" horiz-adv-x="667" d="M33 0v238h211q37 47 47 109.5t10 252.5v834h281v-738q0 -137 -5.5 -212.5t-25.5 -172.5q-39 -182 -195 -311h-323zM143 1575l191 223h217l186 -227l-121 -80l-176 119l-176 -117z" />
<glyph unicode="&#x135;" horiz-adv-x="444" d="M-104 -92h141q51 31 51 98v1041h268v-943q0 -156 -36.5 -248t-153.5 -163h-270v215zM-84 1192l164 278h242l165 -278l-131 -68l-155 158l-156 -158z" />
<glyph unicode="&#x136;" horiz-adv-x="948" d="M98 0v1434h281v-605h10l256 605h289l-299 -684l313 -750h-311l-244 627h-14v-627h-281zM362 -135h246v-88q0 -156 -24.5 -228.5t-118.5 -201.5l-94 53q59 100 82 184h-91v281z" />
<glyph unicode="&#x137;" horiz-adv-x="872" d="M88 0v1434h272v-760h29l193 373h266l-242 -457l244 -590h-270l-189 459h-31v-459h-272zM319 -135h246v-88q0 -156 -24.5 -228.5t-118.5 -201.5l-94 53q59 100 82 184h-91v281z" />
<glyph unicode="&#x138;" horiz-adv-x="819" d="M72 0v1047h272v-373h25l176 373h272l-221 -457l223 -590h-272l-172 453h-31v-453h-272z" />
<glyph unicode="&#x139;" horiz-adv-x="845" d="M29 1673l374 168l78 -227l-387 -119zM98 0h707v238h-426v1196h-281v-1434z" />
<glyph unicode="&#x13a;" horiz-adv-x="446" d="M59 1673l375 168l78 -227l-387 -119zM88 0v1434h270v-1434h-270z" />
<glyph unicode="&#x13b;" horiz-adv-x="845" d="M98 0v1434h281v-1196h426v-238h-707zM338 -135h246v-88q0 -156 -24.5 -228.5t-119.5 -201.5l-94 53q59 100 82 184h-90v281z" />
<glyph unicode="&#x13c;" horiz-adv-x="446" d="M88 0v1434h270v-1434h-270zM92 -135h246v-88q0 -156 -24.5 -228.5t-118.5 -201.5l-95 53q59 100 82 184h-90v281z" />
<glyph unicode="&#x13d;" horiz-adv-x="845" d="M98 0v1434h281v-1196h426v-238h-707zM510 1026v408h211l-41 -408h-170z" />
<glyph unicode="&#x13e;" horiz-adv-x="622" d="M88 0v1434h270v-1434h-270zM432 1026h170l41 408h-211v-408z" />
<glyph unicode="&#x13f;" horiz-adv-x="845" d="M98 0v1434h281v-1196h426v-238h-707zM512 549v254h229v-254h-229z" />
<glyph unicode="&#x140;" horiz-adv-x="671" d="M88 0v1434h270v-1434h-270zM432 604v254h230v-254h-230z" />
<glyph unicode="&#x141;" horiz-adv-x="845" d="M-37 557v229l135 37v611h281v-531l334 94v-229l-334 -94v-436h426v-238h-707v594z" />
<glyph unicode="&#x142;" horiz-adv-x="512" d="M-8 569v228l129 39v598h270v-519l125 39v-227l-125 -39v-688h-270v608z" />
<glyph unicode="&#x143;" horiz-adv-x="1026" d="M98 0v1434h207l377 -824l10 4l-22 252v568h258v-1434h-191l-383 793l-10 -5l12 -241v-547h-258zM346 1673l375 168l78 -227l-387 -119z" />
<glyph unicode="&#x144;" horiz-adv-x="995" d="M88 0v1047h213l37 -74q45 41 85 57.5t120 16.5h217q90 -115 122.5 -230t32.5 -287v-530h-272v551q0 195 -53 280h-230v-831h-272zM311 1284l350 205l96 -211l-364 -160z" />
<glyph unicode="&#x145;" horiz-adv-x="1026" d="M98 0v1434h207l377 -824l10 4l-22 252v568h258v-1434h-191l-383 793l-10 -5l12 -241v-547h-258zM383 -135h246v-88q0 -156 -24.5 -228.5t-119.5 -201.5l-94 53q59 100 82 184h-90v281z" />
<glyph unicode="&#x146;" horiz-adv-x="995" d="M88 0v1047h213l37 -74q45 41 85 57.5t120 16.5h217q90 -115 122.5 -230t32.5 -287v-530h-272v551q0 195 -53 280h-230v-831h-272zM371 -135h245v-88q0 -156 -24.5 -228.5t-118.5 -201.5l-94 53q59 100 82 184h-90v281z" />
<glyph unicode="&#x147;" horiz-adv-x="1026" d="M98 0v1434h207l377 -824l10 4l-22 252v568h258v-1434h-191l-383 793l-10 -5l12 -241v-547h-258zM205 1714l121 82l176 -117l176 119l121 -80l-187 -227h-217z" />
<glyph unicode="&#x148;" horiz-adv-x="995" d="M88 0v1047h213l37 -74q45 41 85 57.5t120 16.5h217q90 -115 122.5 -230t32.5 -287v-530h-272v551q0 195 -53 280h-230v-831h-272zM199 1403l129 67l155 -157l156 157l131 -67l-166 -279h-242z" />
<glyph unicode="&#x149;" horiz-adv-x="1171" d="M-16 1104v252h254v-66q0 -150 -26 -225.5t-108 -185.5l-98 53q59 92 78 172h-100zM264 0v1047h213l37 -74q45 41 85 57.5t120 16.5h217q90 -115 123 -230t33 -287v-530h-273v551q0 195 -53 280h-229v-831h-273z" />
<glyph unicode="&#x14a;" horiz-adv-x="1026" d="M98 0v1434h207l377 -824l10 4l-22 252v568h258v-1330l-191 -104l-383 793l-10 -5l12 -241v-547h-258zM494 -72h116q51 31 52 99v131l266 -54q0 -152 -42 -246t-161 -165h-231v235z" />
<glyph unicode="&#x14b;" horiz-adv-x="995" d="M80 1047h221l37 -74q45 41 85 57.5t120 16.5h217q90 -115 122.5 -230t32.5 -287v-426q0 -152 -42 -246t-160 -165h-303v215h182q51 31 51 98v545q0 195 -53 280h-230v-831h-272v727q0 178 -8 320z" />
<glyph unicode="&#x14c;" horiz-adv-x="1110" d="M61 716q0 208 70 404.5t213 313.5h422q143 -117 213 -313.5t70 -404.5t-68 -394.5t-215 -321.5h-422q-147 135 -215 321.5t-68 394.5zM297 1511v205h516v-205h-516zM358 714.5q0 -149.5 36 -283.5t87 -193h148q51 59 87 193t36 283.5t-35 281.5t-86 192h-150 q-51 -59 -87 -191.5t-36 -282z" />
<glyph unicode="&#x14d;" horiz-adv-x="974" d="M59 520q0 166 46.5 289t146.5 238h479q106 -123 145 -239t39 -288q1 -330 -204 -520h-447q-205 190 -205 520zM221 1165v205h516v-205h-516zM336 535.5q0 -191.5 74 -320.5h155q74 143 74 325.5t-76 290.5h-153q-74 -104 -74 -295.5z" />
<glyph unicode="&#x14e;" horiz-adv-x="1110" d="M61 716q0 208 70 404.5t213 313.5h422q143 -117 213 -313.5t70 -404.5t-68 -394.5t-215 -321.5h-422q-147 135 -215 321.5t-68 394.5zM254 1800h188q20 -80 74 -106h80q53 27 74 106h190q-8 -221 -215 -305h-176q-203 82 -215 305zM358 714.5q0 -149.5 36 -283.5t87 -193 h148q51 59 87 193t36 283.5t-35 281.5t-86 192h-150q-51 -59 -87 -191.5t-36 -282z" />
<glyph unicode="&#x14f;" horiz-adv-x="974" d="M59 520q0 166 46.5 289t146.5 238h479q106 -123 145 -239t39 -288q1 -330 -204 -520h-447q-205 190 -205 520zM174 1448h193q14 -86 30.5 -104.5t32.5 -26.5h98q35 18 45 49q12 43 19 82h192q-14 -244 -215 -326h-180q-201 82 -215 326zM336 535.5q0 -191.5 74 -320.5 h155q74 143 74 325.5t-76 290.5h-153q-74 -104 -74 -295.5z" />
<glyph unicode="&#x150;" horiz-adv-x="1110" d="M61 716q0 208 70 404.5t213 313.5h422q143 -117 213 -313.5t70 -404.5t-68 -394.5t-215 -321.5h-422q-147 135 -215 321.5t-68 394.5zM297 1616l207 348l192 -121l-243 -317zM358 714.5q0 -149.5 36 -283.5t87 -193h148q51 59 87 193t36 283.5t-35 281.5t-86 192h-150 q-51 -59 -87 -191.5t-36 -282zM594 1595l237 328l179 -137l-271 -293z" />
<glyph unicode="&#x151;" horiz-adv-x="974" d="M59 520q0 -330 205 -520h447q205 190 204 520q0 172 -38.5 288t-145.5 239h-479q-100 -115 -146.5 -238t-46.5 -289zM209 1192l170 369l205 -105l-209 -340zM336 535.5q0 191.5 74 295.5h153q76 -109 76 -291t-74 -325h-155q-74 129 -74 320.5zM512 1210l203 353 l192 -125l-237 -320z" />
<glyph unicode="&#x152;" horiz-adv-x="1546" d="M61 716q0 208 70 404.5t213 313.5h1135v-246h-529q68 -150 90 -342h390v-238h-386q-16 -203 -102 -370h545v-238h-1143q-147 135 -215 321.5t-68 394.5zM358 714.5q0 -149.5 36 -283.5t87 -193h148q51 59 87 193t36 283.5t-35 281.5t-86 192h-150q-51 -59 -87 -191.5 t-36 -282z" />
<glyph unicode="&#x153;" horiz-adv-x="1488" d="M59 520q0 166 46.5 289t146.5 238h448q37 -31 91 -109q35 55 106 109h307q137 -100 186.5 -213t49.5 -227.5t-19 -196.5h-510q6 -47 36 -107.5t65 -87.5h387v-215h-508q-57 37 -105 104q-37 -59 -84 -104h-438q-205 190 -205 520zM336 534.5q0 -192.5 74 -321.5h155 q74 143 74 326.5t-76 291.5h-153q-74 -104 -74 -296.5zM897 602h293q4 61 -16.5 127.5t-53.5 101.5h-153q-31 -37 -50.5 -102t-19.5 -127z" />
<glyph unicode="&#x154;" horiz-adv-x="1003" d="M98 0h277v522h108l174 -522h287l-207 588q217 129 217 403q0 168 -91 284t-220 159h-545v-1434zM319 1673l375 168l78 -227l-387 -119zM375 752v436h188q35 -8 71 -71.5t36 -147.5t-42 -146.5t-77 -70.5h-176z" />
<glyph unicode="&#x155;" horiz-adv-x="651" d="M90 0v1047h195l51 -111q82 111 207 111h80v-275h-261v-772h-272zM231 1284l350 205l96 -211l-364 -160z" />
<glyph unicode="&#x156;" horiz-adv-x="1003" d="M98 0v1434h545q129 -43 220 -159t91 -284q0 -274 -217 -403l207 -588h-287l-174 522h-108v-522h-277zM375 752h176q35 8 77 70.5t42 146.5t-36 147.5t-71 71.5h-188v-436zM395 -135h246v-88q0 -156 -24.5 -228.5t-118.5 -201.5l-95 53q59 100 82 184h-90v281z" />
<glyph unicode="&#x157;" horiz-adv-x="651" d="M90 0v1047h195l51 -111q82 111 207 111h80v-275h-261v-772h-272zM94 -135h246v-88q0 -156 -24.5 -228.5t-118.5 -201.5l-95 53q59 100 82 184h-90v281z" />
<glyph unicode="&#x158;" horiz-adv-x="1003" d="M98 0h277v522h108l174 -522h287l-207 588q217 129 217 403q0 168 -91 284t-220 159h-545v-1434zM158 1714l121 82l176 -117l176 119l121 -80l-187 -227h-217zM375 752v436h188q35 -8 71 -71.5t36 -147.5t-42 -146.5t-77 -70.5h-176z" />
<glyph unicode="&#x159;" horiz-adv-x="651" d="M78 1403l129 67l155 -157l156 157l131 -67l-166 -279h-241zM90 0h272v772h261v275h-80q-125 0 -207 -111l-51 111h-195v-1047z" />
<glyph unicode="&#x15a;" horiz-adv-x="794" d="M51 1145q0 213 178 289h492v-246h-393l-6 -12l327 -598q100 -180 101 -275q0 -207 -138 -303h-542v238h424l6 12l-369 661q-80 143 -80 234zM225 1673l375 168l78 -227l-387 -119z" />
<glyph unicode="&#x15b;" horiz-adv-x="716" d="M41 0v215h375l-219 322q-14 23 -44 63.5t-46.5 66t-22.5 38t-16.5 32t-14.5 33.5q-8 39 -8 64q0 150 145 213h453v-216h-319l194 -288q131 -186 146 -256q8 -33 8 -68q0 -145 -109 -219h-522zM166 1284l350 205l96 -211l-364 -160z" />
<glyph unicode="&#x15c;" horiz-adv-x="794" d="M51 1145q0 213 178 289h492v-246h-393l-6 -12l327 -598q100 -180 101 -275q0 -207 -138 -303h-542v238h424l6 12l-369 661q-80 143 -80 234zM125 1575l190 223h217l187 -227l-121 -80l-176 119l-176 -117z" />
<glyph unicode="&#x15d;" horiz-adv-x="716" d="M41 0v215h375l-219 322q-14 23 -44 63.5t-46.5 66t-22.5 38t-16.5 32t-14.5 33.5q-8 39 -8 64q0 150 145 213h453v-216h-319l194 -288q131 -186 146 -256q8 -33 8 -68q0 -145 -109 -219h-522zM69 1192l164 278h242l166 -278l-131 -68l-156 158l-156 -158z" />
<glyph unicode="&#x15e;" horiz-adv-x="794" d="M51 1145q0 213 178 289h492v-246h-393l-6 -12l327 -598q100 -180 101 -275q0 -207 -138 -303h-131l-47 -123q31 -27 45 -45q45 -53 45 -131t-36.5 -137.5t-94.5 -95.5h-180v165h92q18 12 19.5 47t-19.5 50h-51v147l53 123h-237v238h424l6 12l-369 661q-80 143 -80 234z " />
<glyph unicode="&#x15f;" horiz-adv-x="716" d="M41 0v215h375l-219 322q-14 23 -44 63.5t-46.5 66t-22.5 38t-16.5 32t-14.5 33.5q-8 39 -8 64q0 150 145 213h453v-216h-319l194 -288q131 -186 146 -256q8 -33 8 -68q0 -145 -109 -219h-125l-47 -123q31 -27 45 -45q45 -53 45 -131t-36.5 -137.5t-94.5 -95.5h-180v165 h92q18 12 19 47.5t-19 49.5h-51v147l53 123h-223z" />
<glyph unicode="&#x160;" horiz-adv-x="794" d="M51 1145q0 213 178 289h492v-246h-393l-6 -12l327 -598q100 -180 101 -275q0 -207 -138 -303h-542v238h424l6 12l-369 661q-80 143 -80 234zM121 1714l121 82l176 -117l176 119l121 -80l-187 -227h-217z" />
<glyph unicode="&#x161;" horiz-adv-x="716" d="M41 0h522q109 74 109 219q0 70 -25.5 120t-38.5 71q-18 31 -90 133l-194 288h319v216h-453q-145 -63 -145 -213q0 -55 16.5 -86t22.5 -43.5t22.5 -38t24.5 -35.5q51 -72 66 -94l219 -322h-375v-215zM72 1403l129 67l155 -157l156 157l131 -67l-166 -279h-241z" />
<glyph unicode="&#x162;" d="M20 1188v246h898v-246h-310v-1188h-47l-47 -123q31 -27 45 -45q45 -53 45 -131t-37 -137.5t-94 -95.5h-180v165h92q18 12 19 47.5t-19 49.5h-51v147l53 123h-57v1188h-310z" />
<glyph unicode="&#x163;" horiz-adv-x="638" d="M8 831v216h142v284h272v-284h168v-216h-168v-440q0 -125 43 -176h125v-215h-80l-47 -123q31 -27 45 -45q45 -53 45 -131t-37 -137.5t-94 -95.5h-180v165h92q18 12 19 47.5t-19 49.5h-51v147l53 123h-37q-109 100 -131 217q-18 98 -18 240v374h-142z" />
<glyph unicode="&#x164;" d="M20 1188v246h898v-246h-310v-1188h-278v1188h-310zM172 1714l121 82l176 -117l176 119l121 -80l-186 -227h-218z" />
<glyph unicode="&#x165;" horiz-adv-x="686" d="M8 831v216h142v284h272v-284h168v-216h-168v-440q0 -125 43 -176h125v-215h-291q-109 100 -131 217q-18 99 -18 240v374h-142zM506 1133v407h211l-41 -407h-170z" />
<glyph unicode="&#x166;" d="M20 1188v246h898v-246h-310v-445h226v-233h-226v-510h-278v510h-221v233h221v445h-310z" />
<glyph unicode="&#x167;" horiz-adv-x="638" d="M0 422v215h150v194h-142v216h142v284h272v-284h168v-216h-168v-194h160v-215h-160v-31q0 -125 43 -176h125v-215h-291q-94 84 -121.5 180t-27.5 242h-150z" />
<glyph unicode="&#x168;" horiz-adv-x="1077" d="M88 588v846h281v-949q0 -98 19.5 -148t64.5 -99h172q45 49 64.5 99t19.5 148v949h280v-846q0 -104 -5 -162.5t-26 -142.5q-35 -150 -192 -283h-455q-158 129 -192 283q-31 125 -31 305zM270 1507v215q131 55 176 56l199 -56q41 0 162 29v-219q-125 -31 -172 -29l-197 51 q-43 0 -168 -47z" />
<glyph unicode="&#x169;" horiz-adv-x="976" d="M80 516v531h272v-551q0 -186 74 -281h190v832h273v-1047h-215l-37 74q-77 -74 -186 -74h-215q-90 115 -123 229.5t-33 286.5zM215 1145v205q131 55 176 55l198 -55q41 0 162 28v-209q-125 -30 -172 -28l-196 51q-43 0 -168 -47z" />
<glyph unicode="&#x16a;" horiz-adv-x="1077" d="M88 588v846h281v-949q0 -98 19.5 -148t64.5 -99h172q45 49 64.5 99t19.5 148v949h280v-846q0 -104 -5 -162.5t-26 -142.5q-35 -150 -192 -283h-455q-158 129 -192 283q-31 125 -31 305zM281 1511v205h516v-205h-516z" />
<glyph unicode="&#x16b;" horiz-adv-x="976" d="M80 516v531h272v-551q0 -186 74 -281h190v832h273v-1047h-215l-37 74q-77 -74 -186 -74h-215q-90 115 -123 229.5t-33 286.5zM221 1165v205h516v-205h-516z" />
<glyph unicode="&#x16c;" horiz-adv-x="1077" d="M88 588v846h281v-949q0 -98 19.5 -148t64.5 -99h172q45 49 64.5 99t19.5 148v949h280v-846q0 -104 -5 -162.5t-26 -142.5q-35 -150 -192 -283h-455q-158 129 -192 283q-31 125 -31 305zM238 1800h188q20 -80 74 -106h80q53 27 73 106h191q-8 -221 -215 -305h-176 q-203 82 -215 305z" />
<glyph unicode="&#x16d;" horiz-adv-x="976" d="M80 516v531h272v-551q0 -186 74 -281h190v832h273v-1047h-215l-37 74q-77 -74 -186 -74h-215q-90 115 -123 229.5t-33 286.5zM174 1448h193q14 -86 30.5 -104.5t32.5 -26.5h98q35 18 45 49q12 43 19 82h192q-14 -244 -215 -326h-180q-201 82 -215 326z" />
<glyph unicode="&#x16e;" horiz-adv-x="1077" d="M88 588v846h281v-949q0 -98 19.5 -148t64.5 -99h172q45 49 64.5 99t19.5 148v949h280v-846q0 -104 -5 -162.5t-26 -142.5q-35 -150 -192 -283h-455q-158 129 -192 283q-31 125 -31 305zM283 1739q-1 176 163 256h185q164 -80 164 -256q0 -78 -43 -144.5t-121 -103.5h-185 q-78 37 -120.5 103.5t-42.5 144.5zM459 1740.5q0 -59.5 41 -100.5h75q43 43 43 102.5t-43 98.5h-75q-41 -41 -41 -100.5z" />
<glyph unicode="&#x16f;" horiz-adv-x="976" d="M80 516v531h272v-551q0 -186 74 -281h190v832h273v-1047h-215l-37 74q-77 -74 -186 -74h-215q-90 115 -123 229.5t-33 286.5zM223 1370q0 176 164 256h184q164 -80 164 -256q0 -78 -43 -144.5t-121 -103.5h-184q-78 37 -121 103.5t-43 144.5zM399 1372.5 q0 -59.5 41 -100.5h76q43 43 43 102.5t-43 98.5h-76q-41 -41 -41 -100.5z" />
<glyph unicode="&#x170;" horiz-adv-x="1077" d="M88 588v846h281v-949q0 -98 19.5 -148t64.5 -99h172q45 49 64.5 99t19.5 148v949h280v-846q0 -104 -5 -162.5t-26 -142.5q-35 -150 -192 -283h-455q-158 129 -192 283q-31 125 -31 305zM238 1616l206 348l193 -121l-244 -317zM535 1595l237 328l178 -137l-270 -293z" />
<glyph unicode="&#x171;" horiz-adv-x="976" d="M80 516v531h272v-551q0 -186 74 -281h190v832h273v-1047h-215l-37 74q-77 -74 -186 -74h-215q-90 115 -123 229.5t-33 286.5zM168 1192l170 369l205 -105l-209 -340zM471 1210l203 353l192 -125l-237 -320z" />
<glyph unicode="&#x172;" horiz-adv-x="1077" d="M88 588v846h281v-949q0 -98 19.5 -148t64.5 -99h172q45 49 64.5 99t19.5 148v949h280v-846q0 -215 -34.5 -314.5t-125 -233.5t-178.5 -300l8 -10h136v-195h-314q-76 47 -75 139q0 59 24 109l29 59q8 14 45 76l47 82h-240q-158 129 -192 283q-31 125 -31 305z" />
<glyph unicode="&#x173;" horiz-adv-x="976" d="M80 516v531h272v-551q0 -186 74 -281h190v832h273v-1047l-131 -260l8 -10h135v-195h-313q-76 47 -76 139q0 59 25 109l28 59q8 14 45 76l56 96l-29 60q-77 -74 -186 -74h-215q-90 115 -123 229.5t-33 286.5z" />
<glyph unicode="&#x174;" horiz-adv-x="1318" d="M20 1434h275l57 -422l43 -475h11l75 473l64 424h231l62 -424l77 -473h11l41 475l57 422h274l-198 -1434h-295l-143 846h-9l-147 -846h-287zM362 1575l191 223h217l186 -227l-120 -80l-177 119l-176 -117z" />
<glyph unicode="&#x175;" horiz-adv-x="1400" d="M82 502q0 -367 192 -502h170q150 0 252 94q102 -94 260 -94h170q193 156 193 502v545h-272v-533q0 -190 -68 -299h-143v832h-271v-832h-145q-66 104 -66 287v545h-272v-545zM408 1192l163 278h242l166 -278l-131 -68l-156 158l-155 -158z" />
<glyph unicode="&#x176;" horiz-adv-x="905" d="M0 1434h279l127 -437l43 -252h8l43 252l127 437h278l-303 -957v-477h-299v477zM158 1575l190 223h217l187 -227l-121 -80l-176 119l-176 -117z" />
<glyph unicode="&#x177;" horiz-adv-x="968" d="M72 -92v-215h323q66 14 107 45t78 94l137 223q90 147 130 264t40 271v457h-273v-474q0 -180 -67 -297h-121q-72 119 -72 297v474h-272v-472q0 -162 57.5 -298t155.5 -216h141l-12 -22q-31 -57 -59.5 -88t-71.5 -43h-221zM184 1192l164 278h242l166 -278l-131 -68 l-156 158l-156 -158z" />
<glyph unicode="&#x178;" horiz-adv-x="905" d="M0 1434h279l127 -437l43 -252h8l43 252l127 437h278l-303 -957v-477h-299v477zM143 1495v277h271v-277h-271zM498 1495v277h270v-277h-270z" />
<glyph unicode="&#x179;" horiz-adv-x="884" d="M49 0h785v238h-488l485 956v240h-782v-246h483l-483 -955v-233zM238 1673l374 168l78 -227l-387 -119z" />
<glyph unicode="&#x17a;" horiz-adv-x="823" d="M49 0v158l402 673h-377v216h700v-158l-395 -674h391v-215h-721zM190 1284l350 205l96 -211l-364 -160z" />
<glyph unicode="&#x17b;" horiz-adv-x="884" d="M49 0h785v238h-488l485 956v240h-782v-246h483l-483 -955v-233zM322 1495v277h270v-277h-270z" />
<glyph unicode="&#x17c;" horiz-adv-x="823" d="M49 0v158l402 673h-377v216h700v-158l-395 -674h391v-215h-721zM289 1157v277h270v-277h-270z" />
<glyph unicode="&#x17d;" horiz-adv-x="884" d="M49 0h785v238h-488l485 956v240h-782v-246h483l-483 -955v-233zM158 1714l121 82l176 -117l176 119l121 -80l-187 -227h-217z" />
<glyph unicode="&#x17e;" horiz-adv-x="823" d="M49 0h721v215h-391l395 674v158h-700v-216h377l-402 -673v-158zM139 1403l129 67l156 -157l156 157l131 -67l-166 -279h-242z" />
<glyph unicode="&#x17f;" horiz-adv-x="634" d="M18 831v216h113q0 266 231 387h295v-215h-184q-70 -43 -70 -172v-1047h-272v831h-113z" />
<glyph unicode="&#x2000;" horiz-adv-x="997" />
<glyph unicode="&#x2001;" horiz-adv-x="1995" />
<glyph unicode="&#x2002;" horiz-adv-x="997" />
<glyph unicode="&#x2003;" horiz-adv-x="1995" />
<glyph unicode="&#x2004;" horiz-adv-x="665" />
<glyph unicode="&#x2005;" horiz-adv-x="498" />
<glyph unicode="&#x2006;" horiz-adv-x="332" />
<glyph unicode="&#x2007;" horiz-adv-x="332" />
<glyph unicode="&#x2008;" horiz-adv-x="249" />
<glyph unicode="&#x2009;" horiz-adv-x="399" />
<glyph unicode="&#x200a;" horiz-adv-x="110" />
<glyph unicode="&#x2010;" horiz-adv-x="524" d="M51 473v234h422v-234h-422z" />
<glyph unicode="&#x2011;" horiz-adv-x="524" d="M51 473v234h422v-234h-422z" />
<glyph unicode="&#x2012;" horiz-adv-x="524" d="M51 473v234h422v-234h-422z" />
<glyph unicode="&#x2013;" horiz-adv-x="1126" d="M51 473v234h1024v-234h-1024z" />
<glyph unicode="&#x2014;" horiz-adv-x="2150" d="M51 473v234h2048v-234h-2048z" />
<glyph unicode="&#x202f;" horiz-adv-x="399" />
<glyph unicode="&#x205f;" horiz-adv-x="498" />
<glyph unicode="&#xe000;" horiz-adv-x="1045" d="M0 0v1045h1045v-1045h-1045z" />
</font>
</defs>
</svg>
