<?xml version="1.0" standalone="no"?>
<!DOCTYPE svg PUBLIC "-//W3C//DTD SVG 1.1//EN" "http://www.w3.org/Graphics/SVG/1.1/DTD/svg11.dtd" >
<svg xmlns="http://www.w3.org/2000/svg">
<metadata></metadata>
<defs>
<font id="keania_oneregular" horiz-adv-x="1101" >
<font-face units-per-em="2048" ascent="1638" descent="-410" />
<missing-glyph horiz-adv-x="421" />
<glyph horiz-adv-x="2048" />
<glyph horiz-adv-x="2048" />
<glyph unicode="&#xd;" horiz-adv-x="681" />
<glyph unicode=" "  horiz-adv-x="421" />
<glyph unicode="&#x09;" horiz-adv-x="421" />
<glyph unicode="&#xa0;" horiz-adv-x="421" />
<glyph unicode="!" horiz-adv-x="628" d="M150 629v757q0 72 11 84.5t79 12.5h237v-951h-235q-70 0 -81 12.5t-11 84.5zM160 20v265q2 16 6 20t20 4h256q29 0 29 -24v-265q0 -25 -29 -24h-199.5t-76.5 4t-6 20z" />
<glyph unicode="&#x22;" horiz-adv-x="825" d="M109 983v381q0 119 25.5 159t115.5 40h115v-580h-256zM459 983v381q0 119 25.5 159t115.5 40h115v-580h-256z" />
<glyph unicode="#" horiz-adv-x="1409" d="M51 -287l225 600h-200v144h256l137 362h-240v144h293l197 518h164l-197 -518h287l196 518h164l-196 -518h221v-144h-275l-137 -362h258v-144h-313l-225 -600h-164l225 600h-287l-225 -600h-164zM496 457h286l138 362h-287z" />
<glyph unicode="$" horiz-adv-x="1210" d="M78 1076q0 122 9 185.5t43 119t104.5 78t187.5 22.5h24v-588q0 -33 15.5 -47.5t68.5 -14.5h152v-194h-260q-117 0 -187.5 24.5t-104.5 87t-43 134t-9 193.5zM86 229v185q0 43 29 43h258q29 0 35 -8.5t6 -34.5v-160q0 -33 9 -46t46 -13h59v174h164v-826h-164v457h-139 q-150 0 -226.5 51t-76.5 178zM528 1020v846h164v-385h96q150 0 227 -51.5t77 -178.5v-184q0 -43 -29 -43h-258q-29 0 -35 8t-6 35v160q0 33 -9.5 46t-45.5 13h-17v-266h-164zM772 829h25q88 0 136 -3t93 -18t62.5 -35.5t33 -71t17.5 -107.5t2 -163.5t-2 -169t-17.5 -119 t-33 -79t-62.5 -40t-93 -20.5t-136 -3h-23z" />
<glyph unicode="%" horiz-adv-x="1323" d="M74 1149v4q0 207 25.5 267.5t127.5 60.5h70v-88h-33q-37 0 -37 -27v-432q0 -27 37 -27h33v-86h-90q-88 0 -110.5 64.5t-22.5 263.5zM197 0l761 1481h164l-762 -1481h-163zM334 821v86h28q39 0 39 27v432q0 27 -39 27h-28v88h69q100 0 126 -61.5t26 -266.5v-4 q0 -199 -22.5 -263.5t-108.5 -64.5h-90zM768 328v4q0 207 25.5 267t128.5 60h69v-88h-33q-37 0 -36 -26v-432q0 -27 36 -27h33v-86h-90q-88 0 -110.5 64.5t-22.5 263.5zM1028 0v86h29q39 0 39 27v432q0 27 -39 26h-29v88h70q100 0 125.5 -61t25.5 -266v-4 q0 -199 -22.5 -263.5t-108.5 -64.5h-90z" />
<glyph unicode="&#x26;" horiz-adv-x="1257" d="M121 219v258q0 219 223 219h84v-481q0 -61 84 -61h8v-154h-176q-223 0 -223 219zM121 944v318q0 111 53 163l19 15q57 41 151 41h326q223 0 223 -219v-175q0 -219 -223 -219h-84v398q0 35 -10.5 48t-53.5 13h-30q-47 0 -58 -18q-6 -18 -6 -43v-521h-121q-178 14 -186 199 zM582 0v557q0 133 72.5 188.5t211.5 55.5h156q12 -2 12 -17v-125q0 -14 -16 -14h-43q-86 0 -86 -76v-569h-307zM944 0v154h57q20 0 26.5 13t6.5 46v98q0 27 6 35t35 8h115q29 0 29 -43v-82q0 -131 -35 -180t-125 -49h-115z" />
<glyph unicode="'" horiz-adv-x="475" d="M109 983v381q0 119 25.5 159t115.5 40h115v-580h-256z" />
<glyph unicode="(" horiz-adv-x="698" d="M143 -41v1534q0 184 181 184h311v-194h-109q-37 0 -46 -13.5t-9 -46.5v-1394q0 -33 9 -46.5t46 -13.5h109v-194h-311q-180 0 -181 184z" />
<glyph unicode=")" horiz-adv-x="698" d="M63 -31h109q37 0 46 13.5t9 46.5v1394q0 33 -9 46.5t-46 13.5h-109v194h312q180 0 180 -184v-1534q0 -184 -180 -184h-312v194z" />
<glyph unicode="*" horiz-adv-x="909" d="M59 1169q0 12 2 12.5t5 -5.5l26 102l287 -102l-47 -138l-223 82q-50 16 -50 49zM168 786l164 252l121 -75l-134 -201q-25 -37 -43 -37t-43 14zM379 1176v239q0 66 63 66h80v-305l226 84q18 6 32 6q37 0 51 -45l25 -76l-283 -105l-51 136h-143zM455 961l118 79l136 -194 q14 -23 14 -45.5t-31 -46.5l-67 -43z" />
<glyph unicode="+" horiz-adv-x="1247" d="M51 489v205h484v451h204v-451h457v-205h-457v-489h-204v489h-484z" />
<glyph unicode="," horiz-adv-x="581" d="M109 20v265q2 16 6 20t20 4h311q29 0 29 -24v-592q0 -25 -29 -25h-155l-45 328h-111q-16 0 -20 4t-6 20z" />
<glyph unicode="-" horiz-adv-x="1001" d="M119 518v225h764v-225h-764z" />
<glyph unicode="." horiz-adv-x="526" d="M109 25v264q2 16 6 20t20 4h256q29 0 29 -24v-264q0 -25 -29 -25h-200.5t-75.5 4t-6 21z" />
<glyph unicode="/" horiz-adv-x="905" d="M39 -287l668 1768h163l-667 -1768h-164z" />
<glyph unicode="0" horiz-adv-x="1343" d="M129 737v6q0 481 51 592q23 47 63 84t94 49.5t136 12.5h158v-195h-70q-53 0 -68.5 -14.5t-15.5 -44.5v-973q0 -31 15.5 -45t68.5 -14h70v-195h-203q-154 0 -223 94q-57 76 -70 348q-6 106 -6 295zM713 0v195h69q53 0 68.5 14t15.5 45v973q0 31 -15 45t-69 14h-69v195h157 q82 0 136.5 -12.5t94.5 -49.5t61.5 -83t33.5 -140q18 -141 18 -453v-6q0 -469 -47 -581q-47 -119 -135 -144q-47 -12 -117 -12h-202z" />
<glyph unicode="1" horiz-adv-x="1009" d="M70 0v197q0 23 10 31t41 8h246v-236h-297zM90 1303v178h277v-236h-226q-51 0 -51 58zM428 80v1401h215q70 0 91.5 -22.5t21.5 -94.5v-1128h166q31 0 41 -8.5t10 -30.5v-197h-471q-33 0 -53.5 21.5t-20.5 58.5z" />
<glyph unicode="2" horiz-adv-x="1232" d="M117 1085v177q0 113 33.5 166t148.5 53h403v-195h-194q-43 0 -53.5 -13t-10.5 -48v-228h-225q-76 0 -89 12.5t-13 75.5zM127 197v432q0 90 30.5 116.5t129.5 26.5h280v-194h-57q-37 0 -46 -13.5t-9 -46.5v-518h-174q-100 0 -127 33t-27 164zM537 236h524q51 0 51 -58 v-178h-573zM649 578v194h80q37 0 46 13.5t9 45.5v650h154q174 0 174 -199v-520q0 -184 -180 -184h-283z" />
<glyph unicode="3" horiz-adv-x="1251" d="M115 219v176q0 63 13 75.5t89 12.5h225v-227q0 -35 10.5 -48t53.5 -13h194v-195h-403q-115 0 -148.5 53t-33.5 166zM115 1085v177q0 113 33.5 166t148.5 53h403v-195h-194q-43 0 -53.5 -13t-10.5 -48v-228h-225q-76 0 -89 12.5t-13 75.5zM506 653v195h151l68 2 q47 0 53 20q2 6 2 19v592h174q84 0 119 -36t35 -124v-375q0 -94 -49 -141q51 -45 51 -162v-467q0 -115 -33 -145.5t-141 -30.5h-154v594q0 33 -9 46t-46 13h-221z" />
<glyph unicode="4" horiz-adv-x="1198" d="M84 756v567q0 111 33 134.5t141 23.5h133v-615q0 -31 13.5 -45t62.5 -14h98v-195h-342q-84 0 -111.5 27t-27.5 117zM647 80v1401h215q70 0 91.5 -22.5t21.5 -94.5v-557h125q31 0 41 -7t10 -30v-158h-176v-612h-254q-33 0 -53.5 21.5t-20.5 58.5z" />
<glyph unicode="5" horiz-adv-x="1253" d="M111 219v176q0 63 13 75.5t89 12.5h225v-227q-2 -33 9.5 -47t54.5 -14h215v-195h-424q-115 0 -148.5 53t-33.5 166zM139 846l2 483q0 82 18.5 103.5t29 31t41 13.5t44.5 4h197l-4 -527q0 -33 9 -47t46 -14h56v-195l-302 2q-72 0 -104.5 30t-32.5 116zM553 1243v238h582 v-178q0 -57 -52 -58zM662 698v195l290 -2q178 -2 178 -184l-2 -510q0 -100 -45 -149.5t-125 -49.5h-6l-153 2l4 639q0 33 -9.5 46t-45.5 13h-86z" />
<glyph unicode="6" horiz-adv-x="1267" d="M143 209v1171q0 100 127 101h201v-1225q0 -35 10.5 -48t53.5 -13h213v-195h-412q-115 0 -154 51t-39 158zM549 1284v197h424q115 0 147.5 -52.5t32.5 -166.5v-156q0 -63 -26.5 -86t-116.5 -23h-183l2 228q0 23 -2 32q-8 27 -65 27h-213zM553 641v195h383q201 0 201 -185 v-452q0 -113 -45 -156t-150 -43h-113v582q0 33 -9 46t-46 13h-221z" />
<glyph unicode="7" horiz-adv-x="1134" d="M45 1300v181h420v-238h-369q-51 0 -51 57zM127 717v182h338v-240h-287q-51 0 -51 58zM526 80v1401h215q70 0 91.5 -22.5t21.5 -94.5v-469h186q31 0 41.5 -7t10.5 -30v-199h-238v-659h-254q-33 0 -53.5 21.5t-20.5 58.5z" />
<glyph unicode="8" horiz-adv-x="1222" d="M123 219v236q0 72 28.5 110.5t114.5 38.5h226v-348q0 -25 2 -35q6 -27 61 -26h133v-195h-383q-115 0 -148.5 53t-33.5 166zM125 911v371q0 113 45 156t149 43h134v-500q0 -33 9 -46t46 -13h65v-195h-247q-201 0 -201 184zM535 1286v195h370q115 0 154 -51.5t39 -157.5 v-291q0 -100 -127 -100h-201v344q0 35 -10 48t-53 13h-172zM647 584v194h271q180 0 180 -184v-395q0 -199 -174 -199h-154v524q0 33 -9 46.5t-46 13.5h-68z" />
<glyph unicode="9" horiz-adv-x="1257" d="M121 825v453q0 113 45 157t149 44h113v-584q0 -33 9 -46t46 -13h222v-195h-383q-201 0 -201 184zM125 219v143q0 63 13.5 76t88.5 13h226v-195q0 -35 7 -48t36 -13h209v-195h-398q-115 0 -148.5 53t-33.5 166zM510 1282v197h412q115 0 153.5 -52.5t38.5 -158.5v-1172 q0 -100 -127 -100h-201v1225q0 35 -10 48t-53 13h-213z" />
<glyph unicode=":" horiz-adv-x="550" d="M121 25v264q2 16 6 20t20 4h256q29 0 29 -24v-264q0 -25 -29 -25h-200.5t-75.5 4t-6 21zM121 737v264q2 16 6 20.5t20 4.5h256q29 0 29 -25v-264q0 -25 -29 -24h-200.5t-75.5 4t-6 20z" />
<glyph unicode=";" horiz-adv-x="589" d="M129 0v246q0 33 10 47t45 14h232q51 0 51 -57v-645h-119q-117 0 -117 106v289h-102zM129 735v264q2 16 6 20.5t21 4.5h256q29 0 28 -25v-264q0 -25 -28 -24h-201t-76 4t-6 20z" />
<glyph unicode="&#x3c;" horiz-adv-x="1304" d="M51 512v205l1145 512v-205l-915 -410l915 -409v-205z" />
<glyph unicode="=" horiz-adv-x="1402" d="M129 428v205h1145v-205h-1145zM129 817v205h1145v-205h-1145z" />
<glyph unicode="&#x3e;" horiz-adv-x="1304" d="M109 0v205l915 409l-915 410v205l1144 -512v-205z" />
<glyph unicode="?" horiz-adv-x="1048" d="M119 537v186q0 106 37 137t163 31h109l-2 -471h-174q-72 0 -102.5 24.5t-30.5 92.5zM123 1065v197q0 219 303 219h139v-195h-69q-43 0 -53.5 -13t-10.5 -48v-160h-309zM152 29v239q2 14 6 18.5t18 4.5h234q25 0 24 -23v-239q0 -23 -24 -23h-182.5t-69.5 4t-6 19zM481 696 v195h109q37 0 46 13.5t9 45.5v531h154q174 0 174 -199v-401q0 -184 -180 -185h-312z" />
<glyph unicode="@" horiz-adv-x="1523" d="M66 393q0 334 197.5 533.5t512 199.5t502.5 -180t188 -497q0 -205 -98 -327t-250 -122q-98 0 -168.5 52t-70.5 147v602h14q176 0 176 -172v-441q0 -27 21.5 -43t56.5 -16q82 0 138 88t56 240q0 254 -152.5 397t-411.5 143t-424 -161.5t-165 -436t164 -437.5t439 -163 q190 0 354 105l53 -115q-166 -115 -412 -115q-334 0 -527 192.5t-193 526.5zM406 359.5q0 134.5 1 182.5t9 103t22.5 77.5t43 45.5t69.5 28t102 5h174v-131h-118q-31 0 -46.5 -19.5t-16.5 -35t-1 -54.5v-323v-22.5t2 -35t16.5 -34t45.5 -17.5h118v-129h-174 q-125 0 -160.5 24.5t-51 47t-23.5 75.5q-12 78 -12 212.5z" />
<glyph unicode="A" horiz-adv-x="1251" d="M145 117v1247q0 72 21.5 94.5t91.5 22.5h438v-195h-190q-33 0 -33 -16v-1270h-215q-70 0 -91.5 22.5t-21.5 94.5zM555 686v195h223v600h215q70 0 91.5 -22.5t21.5 -94.5v-1245q0 -72 -22.5 -95.5t-90.5 -23.5h-215v686h-223z" />
<glyph unicode="B" horiz-adv-x="1255" d="M145 113v1251q0 72 21.5 94.5t91.5 22.5h438v-195h-190q-33 0 -33 -16v-1270h-215q-70 0 -91.5 21.5t-21.5 91.5zM555 0v193h172q84 0 84 59v391h195q84 0 108.5 -38t24.5 -120v-303q0 -135 -72 -166q-35 -16 -88 -16h-424zM555 705v194h152q51 0 64 24.5t13 75.5v482 h195q82 0 105.5 -37t23.5 -121v-393q0 -119 -42 -172t-175 -53h-336z" />
<glyph unicode="C" horiz-adv-x="1247" d="M129 668.5q0 238.5 3 337t15.5 191.5t34 139t61.5 84t94 49.5t136 11.5h25v-1481h-25q-82 0 -136 12.5t-94 50t-61.5 85t-34.5 141.5q-18 141 -18 379.5zM580 0v195h180q37 0 46 13t9 46v160q0 27 6 35t35 8h258q29 0 29 -43v-185q0 -127 -77 -178t-226 -51h-260z M580 1286v195h260q150 0 226.5 -51.5t76.5 -178.5v-184q0 -43 -29 -43h-258q-29 0 -35 8t-6 35v160q0 33 -9 46t-46 13h-180z" />
<glyph unicode="D" horiz-adv-x="1259" d="M145 115v1249q0 70 22.5 93.5t90.5 23.5h215v-1483h-215q-68 0 -90.5 23.5t-22.5 93.5zM535 0v195h151q51 0 67.5 12t16.5 47v971q0 37 -16.5 49t-67.5 12h-151v195h321q150 0 208 -69t58 -267l-4 -402l2 -346q0 -244 -61.5 -320.5t-222.5 -76.5h-301z" />
<glyph unicode="E" horiz-adv-x="1185" d="M145 117v1247q0 72 21.5 94.5t91.5 22.5h215v-1481h-215q-70 0 -91.5 22.5t-21.5 94.5zM555 0v287h551v-174q0 -70 -22.5 -91.5t-94.5 -21.5h-434zM555 655v236h428v-123q0 -74 -14.5 -93.5t-81.5 -19.5h-332zM555 1194v287h530v-174q0 -70 -22.5 -91.5t-93.5 -21.5h-414 z" />
<glyph unicode="F" horiz-adv-x="1112" d="M145 115v1247q0 72 22.5 95.5t90.5 23.5h215v-1481h-215q-70 0 -91.5 22.5t-21.5 92.5zM555 674v235h428v-123q0 -74 -14.5 -93t-81.5 -19h-332zM555 1192v289h510v-176q0 -70 -22.5 -91.5t-94.5 -21.5h-393z" />
<glyph unicode="G" horiz-adv-x="1267" d="M129 668.5q0 238.5 3 337t15.5 191.5t34 139t61.5 84t94 49.5t136 11.5h25v-1227q0 -31 15 -45t69 -14h151v-195h-260q-82 0 -136 12.5t-94 50t-61.5 85t-34.5 141.5q-18 141 -18 379.5zM580 612v195h360q201 0 201 -184v-426q0 -127 -19.5 -162t-111.5 -35h-195v553 q0 33 -9 46t-46 13h-180zM580 1286v195h260q150 0 226.5 -51.5t76.5 -178.5v-184q0 -43 -29 -43h-258q-29 0 -35 8t-6 35v160q0 33 -9 46t-46 13h-180z" />
<glyph unicode="H" horiz-adv-x="1255" d="M145 117v1364h254q33 0 53.5 -22.5t20.5 -59.5v-518h225v-195h-225v-686h-215q-70 0 -91.5 22.5t-21.5 94.5zM780 82v1399h215q70 0 91.5 -22.5t21.5 -94.5v-1364h-254q-33 0 -53.5 22.5t-20.5 59.5z" />
<glyph unicode="I" horiz-adv-x="620" d="M145 117v1247q0 72 21.5 94.5t91.5 22.5h215v-1481h-215q-70 0 -91.5 22.5t-21.5 94.5z" />
<glyph unicode="J" horiz-adv-x="974" d="M39 229v185q0 43 29 43h258q29 0 35 -8.5t6 -34.5v-160q0 -33 9 -46t46 -13h16v-195h-96q-150 0 -226.5 51t-76.5 178zM500 0v1481h215q70 0 91 -22.5t21 -94.5v-1247q0 -72 -21.5 -94.5t-90.5 -22.5h-215z" />
<glyph unicode="K" horiz-adv-x="1167" d="M145 117v1364h215q70 0 91.5 -22.5t21.5 -94.5v-1364h-215q-70 0 -91.5 22.5t-21.5 94.5zM555 686v195h90q37 0 46 13t9 46v541h236q59 0 75.5 -22.5t16.5 -94.5v-434q0 -123 -44 -183.5t-177 -60.5h-252zM694 82v530h234q61 0 87.5 -33.5t26.5 -109.5v-469h-274 q-33 0 -53.5 22.5t-20.5 59.5z" />
<glyph unicode="L" horiz-adv-x="1144" d="M145 117v1247q0 72 21.5 94.5t91.5 22.5h215v-1481h-215q-70 0 -91.5 22.5t-21.5 94.5zM545 0v195h190q33 0 34 7t1 17v205q0 16 4 19t14 3h287q23 0 23 -28v-361q0 -57 -58 -57h-495z" />
<glyph unicode="M" horiz-adv-x="1970" d="M145 117v1282q0 37 20.5 59.5t53.5 22.5h254v-1481h-215q-70 0 -91.5 22.5t-21.5 94.5zM557 1286v195h524q33 0 53.5 -22.5t20.5 -59.5v-1249h-213q-61 0 -88 33.5t-27 109.5v934q0 33 -9 46t-46 13h-215zM1217 1286v195h307q150 0 226.5 -51.5t76.5 -178.5v-1134 q0 -72 -21.5 -94.5t-91.5 -22.5h-215v1227q0 33 -9 46t-46 13h-227z" />
<glyph unicode="N" horiz-adv-x="1417" d="M147 0v1217h213q33 0 53.5 -23t20.5 -59v-1018q0 -70 -18.5 -93.5t-73.5 -23.5h-195zM147 1288v193h445q51 0 82 -12.5t50 -52.5t26.5 -76.5t15.5 -86.5q10 -59 29 -174q35 -231 108 -653q29 -180 40 -201.5t40 -25.5v1200q0 37 20.5 59.5t53.5 22.5h213v-1364 q0 -72 -21.5 -94.5t-91.5 -22.5h-291q-121 0 -158.5 37t-66.5 190q-57 303 -166 979q-8 51 -23.5 65.5t-52.5 16.5h-252z" />
<glyph unicode="O" horiz-adv-x="1312" d="M129 668.5q0 238.5 3 337t15.5 191.5t34 139t61.5 84t94 49.5t136 11.5h25v-1227q0 -31 15 -45t69 -14h151v-195h-260q-82 0 -136 12.5t-94 50t-61.5 85t-34.5 141.5q-18 141 -18 379.5zM580 1284v195h260q82 0 136 -12.5t94 -50.5t61.5 -85t33.5 -141q19 -141 19 -380 v-65q0 -188 -3 -272q-3 -98 -15.5 -191.5t-34 -139.5t-61.5 -84t-94 -49t-136 -11h-25v1227q0 31 -15.5 45t-68.5 14h-151z" />
<glyph unicode="P" horiz-adv-x="1206" d="M145 117v1282q0 37 20.5 59.5t53.5 22.5h254v-1481h-215q-70 0 -91.5 22.5t-21.5 94.5zM555 569v195h152q53 0 68.5 14.5t15.5 44.5v402q0 33 -15.5 47t-68.5 14h-152v195h260q195 0 259.5 -91.5t64.5 -365.5q0 -182 -40 -284.5t-105.5 -136.5t-178.5 -34h-260z" />
<glyph unicode="Q" horiz-adv-x="1312" d="M129 668.5q0 238.5 3 337t15.5 191.5t34 139t61.5 84t94 49.5t136 11.5h25v-1227q0 -31 15 -45t69 -14h151v-195h-260q-82 0 -136 12.5t-94 50t-61.5 85t-34.5 141.5q-18 141 -18 379.5zM580 1284v195h260q82 0 136 -12.5t94 -50.5t61.5 -85t33.5 -141q18 -141 19 -380 v-65q0 -188 -3 -272q-3 -98 -15.5 -191.5t-34 -139.5t-61.5 -84t-94 -49t-136 -11h-25v1227q0 31 -15.5 45t-68.5 14h-151zM817 -74h412v-174q0 -61 -51 -61h-310q-51 0 -51 61v174z" />
<glyph unicode="R" horiz-adv-x="1267" d="M145 117v1282q0 37 20.5 59.5t53.5 22.5h254v-1481h-215q-70 0 -91.5 22.5t-21.5 94.5zM555 678v194h152q53 0 68.5 14.5t15.5 45.5v293q0 33 -15.5 47t-68.5 14h-152v195h260q119 0 187.5 -18.5t103.5 -73t44 -121t9 -187t-9 -184t-43 -119t-104.5 -78t-187.5 -22.5 h-260zM752 82v532h254q61 0 87.5 -33.5t26.5 -109.5v-471h-295q-33 0 -53 22.5t-20 59.5z" />
<glyph unicode="S" horiz-adv-x="1277" d="M115 229v185q-1 43 28 43h258q29 0 35 -8.5t6 -34.5v-160q0 -33 9.5 -46t46.5 -13h221v-195h-301q-150 0 -226.5 51t-76.5 178zM115 1074q0 122 9 185.5t43 119t104.5 78t187.5 22.5h24v-588q0 -33 15.5 -47.5t68.5 -14.5h152v-194h-260q-117 0 -187.5 24.5t-104.5 87 t-43 134t-9 193.5zM565 1286v195h260q150 0 226.5 -51.5t76.5 -178.5v-184q0 -43 -28 -43h-258q-29 0 -35 8t-6 35v160q0 33 -9.5 46t-46.5 13h-180zM801 0v829h24q88 0 136.5 -3t93.5 -18t62.5 -35.5t32.5 -71t17 -107.5t2 -163.5t-2 -169t-17 -119t-32.5 -79t-62.5 -40 t-93.5 -20.5t-136.5 -3h-24z" />
<glyph unicode="T" horiz-adv-x="1251" d="M51 1323v158h641q33 0 53.5 -22.5t20.5 -59.5v-1399h-215q-70 0 -91.5 22.5t-21.5 94.5v1108h-327q-59 0 -60 98zM848 1225v256h328q59 0 59 -99v-157h-387z" />
<glyph unicode="U" horiz-adv-x="1302" d="M143 229v1135q0 72 21.5 94.5t91.5 22.5h215v-1227q0 -33 9 -46t46 -13h222v-195h-302q-150 0 -226.5 51t-76.5 178zM809 229v1252h215q70 0 91.5 -22.5t21.5 -94.5v-1110q0 -33 9 -46t46 -13h37v-195h-117q-150 0 -226.5 51t-76.5 178z" />
<glyph unicode="V" horiz-adv-x="1253" d="M61 1481h197q70 0 95.5 -22.5t35.5 -94.5l135 -1090q6 -49 26.5 -63t65.5 -16l-2 -195h-90q-180 0 -237 88q-31 47 -43.5 93t-22.5 130zM666 0l223 1364q8 70 34.5 93.5t96.5 23.5h194l-204 -1211q-14 -78 -23.5 -114.5t-32 -79.5t-61.5 -59.5t-100 -16.5h-127z" />
<glyph unicode="W" horiz-adv-x="1970" d="M143 229v1135q0 72 21.5 94.5t91.5 22.5h215v-1227q0 -33 9 -46t46 -13h222v-195h-302q-150 0 -226.5 51t-76.5 178zM809 82v942h213q61 0 88 -34t27 -109v-627q0 -33 9 -46t46 -13h221v-195h-530q-33 0 -53.5 22.5t-20.5 59.5zM1495 0v1481h215q70 0 92.5 -22.5 t22.5 -94.5v-1282q0 -37 -21.5 -59.5t-54.5 -22.5h-254z" />
<glyph unicode="X" horiz-adv-x="1290" d="M121 76v614q0 76 30.5 112t108.5 36h361v-195h-74q-37 0 -47.5 -13.5t-10.5 -45.5v-584h-276q-53 0 -72.5 17.5t-19.5 58.5zM154 1049v317q0 72 21.5 94.5t90.5 22.5h256v-551h-256q-70 0 -91 22.5t-21 94.5zM702 643v195h50q37 0 46 13t9 46v584h276q59 0 76 -22.5 t17 -94.5v-623q0 -51 -14.5 -74.5t-63.5 -23.5h-396zM739 117v319q0 72 21.5 94.5t91.5 22.5h256v-553h-256q-70 0 -91.5 22.5t-21.5 94.5z" />
<glyph unicode="Y" horiz-adv-x="1150" d="M90 791v593q0 96 113 97h215v-584q0 -33 10 -46t47 -13h74v-195h-320q-78 0 -108.5 36t-30.5 112zM383 117v327q0 72 21.5 94.5t91.5 22.5h256v-561h-256q-70 0 -91.5 22.5t-21.5 94.5zM631 643v195h49q37 0 46 14t9 45v584h215q61 0 87 -24.5t26 -92.5v-578 q0 -143 -119 -143h-313z" />
<glyph unicode="Z" horiz-adv-x="1316" d="M129 1085v258q0 106 43 127q23 10 57 11h504v-195h-172q-43 0 -53 -13t-10 -48v-140h-369zM131 76v614q0 76 31 112t108 36h361v-195h-74q-37 0 -47 -13.5t-10 -45.5v-584h-277q-53 0 -72.5 17.5t-19.5 58.5zM586 0v195h170q43 0 53 13t10 48v139h369v-280 q0 -96 -41 -109q-20 -6 -60 -6h-501zM713 643v195h49q37 0 46 13t9 46v584h277q59 0 75.5 -22.5t16.5 -94.5v-623q0 -51 -14.5 -74.5t-63.5 -23.5h-395z" />
<glyph unicode="[" horiz-adv-x="784" d="M147 -164v1780q0 82 15.5 96t97.5 14h133v-2000h-133q-82 0 -97.5 14t-15.5 96zM457 -78h286v-86q0 -82 -15 -96t-97 -14h-174v196zM457 1530v196h174q82 0 97 -14t15 -96v-86h-286z" />
<glyph unicode="\" horiz-adv-x="905" d="M35 1481h164l667 -1768h-164z" />
<glyph unicode="]" horiz-adv-x="784" d="M41 -78h287v-196h-174q-82 0 -97.5 14t-15.5 96v86zM41 1530v86q0 82 15.5 96t97.5 14h174v-196h-287zM391 -274v2000h133q82 0 97.5 -14t15.5 -96v-1780q0 -82 -15.5 -96t-97.5 -14h-133z" />
<glyph unicode="^" horiz-adv-x="1175" d="M82 500l508 981l504 -981h-203l-301 590l-305 -590h-203z" />
<glyph unicode="_" horiz-adv-x="1230" d="M119 -158h993v-225h-993v225z" />
<glyph unicode="`" horiz-adv-x="499" d="M82 1937h237q78 0 88.5 -12t10.5 -104v-279h-148z" />
<glyph unicode="a" horiz-adv-x="1120" d="M104 446v52q0 122 2 172q2 58 7.5 124t18.5 97t34.5 62.5t56.5 43.5q76 27 195 27h198v-154h-110q-63 0 -72 -22q-12 -27 -12 -76v-520v-24.5t4 -34.5q8 -39 80 -39h110v-154h-198q-78 0 -127 7t-86 31.5t-55.5 54.5t-30.5 95q-15 92 -15 258zM678 227v797h84 q129 0 176 -60.5t47 -158.5v-574q0 -63 27 -71q14 -6 39 -6h10q16 0 16 -15v-125q0 -14 -8 -14h-168q-115 0 -169 53t-54 174z" />
<glyph unicode="b" d="M117 158v1165q0 70 46 114t136 44h125v-1481h-125q-90 0 -136 44t-46 114zM485 0v154h111q53 0 68.5 14t15.5 45v596q0 33 -15.5 47t-68.5 14h-111v154h199q78 0 127 -7t86 -31.5t55.5 -54.5t30.5 -95q14 -92 14 -258t-2 -224.5t-7 -124t-18.5 -96.5t-35 -62.5 t-55.5 -43.5q-76 -27 -195 -27h-199z" />
<glyph unicode="c" horiz-adv-x="1054" d="M104 494v46q0 110 2 164q2 64 13.5 130.5t30 96.5t55.5 54.5t86 31.5t127 7h4v-1024h-4q-203 0 -250 70q-23 33 -36 63.5t-17 95.5q-11 119 -11 265zM485 0v154h111q43 0 53 13t10 48v109h209t74 -1t7 -2.5t7 -3.5t4.5 -5t2.5 -9q4 -14 4 -22v-62q0 -219 -224 -219h-258z M485 870v154h258q223 0 224 -219v-139h-209t-74 1t-7 2t-7 3t-4 5t-2 7q-4 16 -5 25v100q0 35 -10 48t-53 13h-111z" />
<glyph unicode="d" d="M104 494v46q0 110 2 164q2 64 13.5 130.5t30 96.5t55.5 54.5t86 31.5t127 7h198v-154h-110q-53 0 -68.5 -14t-15.5 -47v-596q0 -31 15.5 -45t68.5 -14h110v-154h-198q-203 0 -250 70q-23 33 -36 63.5t-17 95.5q-11 119 -11 265zM678 0v1481h125q90 0 136 -44t46 -114 v-1165q0 -70 -46 -114t-136 -44h-125z" />
<glyph unicode="e" horiz-adv-x="1064" d="M104 494v46q0 110 2 164q2 64 13.5 130.5t30 96.5t55.5 54.5t86 31.5t127 7h4v-1024h-4q-203 0 -250 70q-23 33 -36 63.5t-17 95.5q-11 119 -11 265zM465 440v154h110q49 0 66.5 12t17.5 47v156q0 35 -10 48t-53 13h-111v154h238q141 0 192.5 -55.5t51.5 -163.5v-180 q0 -184 -201 -185h-301zM485 0v154h111q43 0 53 13t10 48v66q0 31 7.5 34.5t9.5 5t11 2.5t13 1h267v-105q0 -219 -224 -219h-258z" />
<glyph unicode="f" horiz-adv-x="710" d="M33 928v96h155v188q0 150 67.5 209.5t217.5 59.5h197q12 -2 12 -17v-125q0 -14 -16 -14h-84q-86 0 -86 -76v-1249h-125q-90 0 -136.5 45t-46.5 115v706h-104q-51 0 -51 62zM541 866v158h143v-96q0 -61 -51 -62h-92z" />
<glyph unicode="g" d="M104 446v52q0 124 2 172q3 59 8 124.5t18 96.5t34.5 62.5t56.5 43.5q76 27 195 27h198v-154h-110q-53 0 -68.5 -14t-15.5 -47v-596q0 -31 15.5 -45t68.5 -14h110v-154h-198q-78 0 -127 7t-86 31.5t-55.5 54.5t-30.5 95q-14 92 -15 258zM135 -174q0 31 7.5 35t9.5 5t11 2 t13 1h266v-109q0 -35 10.5 -48t53.5 -13h110v-154h-258q-223 0 -223 219v62zM678 -457v1481h125q90 0 136 -44t46 -114v-1165q0 -70 -46 -114t-136 -44h-125z" />
<glyph unicode="h" d="M119 82v1399h125q90 0 136 -44t46 -114v-1323h-233q-33 0 -53.5 22.5t-20.5 59.5zM477 870v154h287q223 0 223 -219v-805h-233q-33 0 -53.5 22.5t-20.5 59.5v727q0 33 -15.5 47t-68.5 14h-119z" />
<glyph unicode="i" horiz-adv-x="542" d="M111 1335.5q0 102.5 22.5 124t131 21.5t131 -21.5t22.5 -124t-23.5 -125t-130 -22.5t-130 22.5t-23.5 125zM119 82v940h125q90 0 136 -44t46 -114v-864h-233q-33 0 -53.5 22.5t-20.5 59.5z" />
<glyph unicode="j" horiz-adv-x="542" d="M-14 -315q0 14 16 14h51q49 0 58 18q8 27 8 60v1245h125q90 0 136 -44t46 -114v-1091q0 -121 -54.5 -174.5t-168.5 -53.5h-205q-12 0 -12 15v125zM117 1335.5q0 102.5 22.5 124t131 21.5t131 -21.5t22.5 -124t-23.5 -125t-130 -22.5t-130 22.5t-23.5 125z" />
<glyph unicode="k" horiz-adv-x="1077" d="M119 82v1399h125q90 0 136 -44t46 -114v-1323h-233q-33 0 -53.5 22.5t-20.5 59.5zM477 522v154h111q43 0 53 13t10 48v203q0 84 74 84h233v-283q0 -219 -223 -219h-258zM672 82v383h233q33 0 53.5 -22.5t20.5 -59.5v-383h-234q-33 0 -53 22.5t-20 59.5z" />
<glyph unicode="l" horiz-adv-x="577" d="M115 227v1252h125q90 0 136 -44t46 -114v-1090q0 -63 27 -71q14 -6 38 -6h52q16 0 16 -15v-125q0 -14 -10 -14h-207q-115 0 -169 53t-54 174z" />
<glyph unicode="m" horiz-adv-x="1648" d="M119 82v942h125q90 0 136 -44t46 -114v-866h-233q-33 0 -53.5 22.5t-20.5 59.5zM477 870v154h279q223 0 223 -219v-805h-234q-33 0 -53 22.5t-20 59.5v727q0 33 -15.5 47t-68.5 14h-111zM1032 870v154h279q223 0 223 -219v-805h-234q-33 0 -53 22.5t-20 59.5v727 q0 33 -15.5 47t-68.5 14h-111z" />
<glyph unicode="n" d="M119 82v942h125q90 0 136 -44t46 -114v-866h-233q-33 0 -53.5 22.5t-20.5 59.5zM477 870v154h287q223 0 223 -219v-805h-233q-33 0 -53.5 22.5t-20.5 59.5v727q0 33 -15.5 47t-68.5 14h-119z" />
<glyph unicode="o" horiz-adv-x="1099" d="M104 446v52q0 122 2 172q2 58 7.5 124t18.5 97t34.5 62.5t56.5 43.5q76 27 195 27h4v-772v-24.5t4 -34.5q8 -39 80 -39h110v-154h-198q-78 0 -127 7t-86 31.5t-55.5 54.5t-30.5 95q-15 92 -15 258zM483 870v154h199q78 0 127 -7t86 -31.5t55.5 -54.5t28.5 -95 q16 -92 16 -258t-2 -224.5t-7 -124t-18.5 -96.5t-35 -62.5t-55.5 -43.5q-76 -27 -195 -27h-4v772v24.5t-2 34.5q-10 39 -82 39h-111z" />
<glyph unicode="p" d="M117 -299v1165q0 70 46 114t136 44h125v-1481h-125q-90 0 -136 44t-46 114zM485 0v154h111q53 0 68.5 14t15.5 45v596q0 33 -15.5 47t-68.5 14h-111v154h199q203 0 250 -70q23 -33 36 -63.5t17 -95.5q10 -119 10 -264.5t-2 -210t-13 -131t-29.5 -96.5t-55.5 -54.5 t-86 -31.5t-127 -7h-199z" />
<glyph unicode="q" d="M104 446v52q0 124 2 172q3 59 8 124.5t18 96.5t34.5 62.5t56.5 43.5q76 27 195 27h198v-154h-110q-53 0 -68.5 -14t-15.5 -47v-596q0 -31 15.5 -45t68.5 -14h110v-154h-198q-78 0 -127 7t-86 31.5t-55.5 54.5t-30.5 95q-14 92 -15 258zM678 -457v1481h125q90 0 136 -44 t46 -114v-1165q0 -70 -46 -114t-136 -44h-125z" />
<glyph unicode="r" horiz-adv-x="634" d="M115 0v797q0 121 54 174t169 53h246q12 0 12 -14v-125q0 -14 -16 -15h-93q-49 0 -57 -18q-8 -27 -8 -59v-635q0 -70 -46 -114t-136 -44h-125z" />
<glyph unicode="s" horiz-adv-x="1038" d="M92 653v144q0 135 68.5 181t238.5 46v-375q0 -35 10.5 -48t53.5 -13h115v-154h-263q-223 0 -223 219zM96 219v62q0 31 7.5 34.5t9.5 5t11 2.5t11 1h268v-109q0 -35 10.5 -48t53.5 -13h111v-154h-259q-223 0 -223 219zM461 870v154h258q223 0 223 -219v-107h-208.5t-74 1 t-7.5 2t-7 3.5t-4 5.5t-2 7q-4 16 -4 24v68q0 35 -10.5 48t-53.5 13h-110zM639 0v588h84q223 0 223 -219v-142q0 -135 -68.5 -181t-238.5 -46z" />
<glyph unicode="t" horiz-adv-x="718" d="M31 928v96h155v457h125q90 0 136.5 -45t46.5 -115v-1090q0 -75 84 -75h2h43q16 0 16 -15v-125q0 -12 -12 -16h-156q-150 0 -217.5 59.5t-67.5 208.5v598h-104q-51 0 -51 62zM545 866v158h157v-96q0 -61 -51 -62h-106z" />
<glyph unicode="u" horiz-adv-x="1122" d="M115 219v805h233q33 0 53.5 -22.5t20.5 -59.5v-727q0 -33 15.5 -47t68.5 -14h119v-154h-287q-223 0 -223 219zM676 158v866h233q33 0 53.5 -22.5t20.5 -59.5v-711q0 -63 27 -71q14 -6 39 -6h10q16 0 16 -15v-125q0 -14 -10 -14h-207q-90 0 -136 44t-46 114z" />
<glyph unicode="v" horiz-adv-x="1044" d="M113 319v705h233q74 0 74 -84v-684q0 -102 72 -102v-154h-74q-193 0 -254 106q-51 84 -51 213zM553 0v154q72 0 72 102v684q0 84 73 84h234v-705q0 -229 -146 -290q-63 -29 -159 -29h-74z" />
<glyph unicode="w" horiz-adv-x="1654" d="M115 219v805h233q33 0 53.5 -22.5t20.5 -59.5v-727q0 -33 15.5 -47t68.5 -14h110v-154h-278q-223 0 -223 219zM670 219v805h233q33 0 53.5 -22.5t20.5 -59.5v-727q0 -33 15.5 -47t68.5 -14h110v-154h-278q-223 0 -223 219zM1233 0v1024h233q33 0 53.5 -22.5t20.5 -59.5 v-784q0 -70 -46 -114t-136 -44h-125z" />
<glyph unicode="x" horiz-adv-x="1032" d="M106 0v287q0 100 50.5 148t173.5 48h155v-153h-32q-33 0 -37 -27q-2 -12 -2 -35v-184q0 -84 -74 -84h-234zM106 721v303h234q74 0 74 -84v-201q0 -41 10 -51t29 -10h32v-154h-155q-123 0 -173.5 48.5t-50.5 148.5zM547 330v153h155q123 0 173.5 -48t50.5 -148v-287h-234 q-74 0 -74 84v184q0 41 -10 51.5t-28 10.5h-33zM547 524v154h33q33 0 36 27q2 12 2 34v201q0 84 74 84h234v-303q0 -100 -50.5 -148.5t-173.5 -48.5h-155z" />
<glyph unicode="y" d="M115 219v805h233q33 0 53.5 -22.5t20.5 -59.5v-727q0 -33 15.5 -47t68.5 -14h110v-154h-278q-223 0 -223 219zM135 -174q0 31 7.5 35t9.5 5t11 2t13 1h266v-109q0 -35 10.5 -48t53.5 -13h110v-154h-258q-223 0 -223 219v62zM678 -457v1481h125q90 0 136 -44t46 -114 v-1165q0 -70 -46 -114t-136 -44h-125z" />
<glyph unicode="z" horiz-adv-x="1060" d="M104 125v321q0 63 25 100.5t96 37.5h187v-584h-183q-125 0 -125 125zM109 698v213q0 113 112 113h369v-154h-111q-43 0 -53 -13t-10 -48v-111h-307zM473 0v154h111q43 0 53 13t10 48v111h307v-213q0 -113 -112 -113h-369zM473 430v154h111q43 0 53 13t10 46v342 q0 31 10.5 35t24.5 4h199q74 0 73 -84v-289q0 -156 -32 -184q-47 -37 -129 -37h-320z" />
<glyph unicode="{" horiz-adv-x="710" d="M76 387v105q0 14 10 14h145q86 0 134.5 -60.5t48.5 -166.5v-695h-64q-98 0 -140 51.5t-42 167.5v492q0 63 -27 74q-14 4 -39 4h-10q-16 0 -16 14zM76 573v105q0 14 16 14h10q49 0 58 21q8 25 8 57v492q0 117 42 168t140 51h64v-695q0 -106 -48.5 -166.5t-134.5 -60.5 h-143q-12 0 -12 14zM467 -217h92q51 0 82 -31t31 -80v-86h-205v197zM467 1284v197h205v-86q0 -49 -31 -80t-82 -31h-92z" />
<glyph unicode="|" horiz-adv-x="462" d="M150 -291v1876h163v-1876h-163z" />
<glyph unicode="}" horiz-adv-x="710" d="M39 -328q0 49 30.5 80t82.5 31h92v-197h-205v86zM39 1395v86h205v-197h-92q-51 0 -82 31t-31 80zM297 279q0 106 48 166.5t134 60.5h144q12 0 12 -14v-105q0 -14 -17 -14h-10q-49 0 -57 -21q-8 -25 -8 -57v-492q0 -117 -42 -168t-141 -51h-63v695zM297 786v695h63 q98 0 140.5 -51.5t42.5 -167.5v-492q0 -63 26 -74q14 -4 39 -4h10q16 0 17 -14v-105q0 -14 -8 -14h-148q-86 0 -134 60.5t-48 166.5z" />
<glyph unicode="~" horiz-adv-x="1376" d="M123 467v227q0 80 50 132.5t136 52.5q27 0 41 -2l627 -89q6 -2 16 -2q51 0 51 68v10q0 16 15 17h186q14 0 15 -9v-229q0 -82 -50.5 -134t-136.5 -52q-12 0 -41 4l-626 88l-17 2q-51 0 -51 -68v-10q0 -16 -14 -16h-187q-14 0 -14 10z" />
<glyph unicode="&#xa1;" horiz-adv-x="595" d="M133 -371v758q0 72 11 84t81 12h236v-950h-238q-68 0 -79 12.5t-11 83.5zM143 731v264q2 16 6.5 20.5t20.5 4.5h256q29 0 29 -25v-264q0 -25 -29 -24h-199.5t-77 4t-6.5 20z" />
<glyph unicode="&#xa2;" horiz-adv-x="983" d="M61.5 647.5q-0.5 145.5 2 210t13.5 131t29.5 96t55.5 54t86 32t127 7.5h4v-1024h-4q-203 0 -252 71q-20 31 -33.5 61.5t-19.5 96.5q-8 119 -8.5 264.5zM442 307h111q43 0 53 13.5t10 48.5v108h209t74 -1t7 -2t7 -3t4.5 -5t4.5 -7q2 -16 2 -25v-61q0 -219 -224 -219h-94 v-611h-164v764zM442 1024v680h164v-524h94q223 0 224 -219v-140h-209t-74 1t-7 2t-7 3t-4 5.5t-5 7.5q-2 16 -2 24v101q0 53 -36 59h-138z" />
<glyph unicode="&#xa3;" horiz-adv-x="1136" d="M94 684v143h94v435q0 117 42 168t141 51h145v-654h313v-143h-313v-457q0 -106 -48 -166.5t-134 -60.5h-225q-12 0 -13 14v187q0 14 17 14h10q49 0 57 18q8 27 8 60v391h-94zM569 1245v236h287v-125q0 -49 -30.5 -80t-82.5 -31h-174zM602 0v195h221q20 0 26.5 13t6.5 46 v160q0 27 6 35t35 8h156q29 0 28 -43v-185q0 -133 -41 -181t-159 -48h-279z" />
<glyph unicode="&#xa4;" horiz-adv-x="1366" d="M72 154l233 235q-106 137 -106 306t108 304l-235 238l114 117l246 -248q113 68 248 68t250 -74l252 254l114 -117l-243 -246q104 -131 104 -296t-102 -298l241 -243l-114 -117l-248 248q-119 -76 -257 -76t-249 70l-242 -242zM348 693q0 -138 96.5 -235.5t234.5 -97.5 t236.5 97.5t98.5 235.5t-98.5 234.5t-236.5 96.5t-234.5 -96.5t-96.5 -234.5z" />
<glyph unicode="&#xa5;" horiz-adv-x="1159" d="M94 831v553q0 96 113 97h215v-543q0 -33 10 -46t47 -13h74v-195h-320q-78 0 -108.5 36t-30.5 111zM205 233v144h203v82h-203v143h735v-143h-205v-82h205v-144h-205v-233h-215q-70 0 -91 22.5t-21 94.5v116h-203zM635 684v195h49q37 0 46 13t9 46v543h215q61 0 87 -24.5 t26 -92.5v-537q0 -143 -119 -143h-313z" />
<glyph unicode="&#xa6;" horiz-adv-x="458" d="M147 410h164v-867h-164v867zM147 719v866h164v-866h-164z" />
<glyph unicode="&#xa7;" horiz-adv-x="1290" d="M115 469v616q0 113 9 176.5t43 119t104.5 78t187.5 22.5h24v-611q6 -39 84 -39h152v-194h-234l-2 -258q0 -33 16.5 -47.5t69.5 -14.5h152v-194h-281q-111 0 -176 17.5t-98 64.5t-42 104.5t-9 159.5zM154 -43q-1 43 28 43h258q29 0 35 -8t6 -35v-160q0 -33 9.5 -46 t46.5 -13h180v-195h-260q-150 0 -226.5 51.5t-76.5 178.5v184zM565 1286v195h260q150 0 226.5 -51.5t76.5 -178.5v-184q0 -43 -28 -43h-258q-29 0 -35 8t-6 35v160q0 33 -9.5 46t-46.5 13h-180zM809 -457v1291h94q156 0 216.5 -73t60.5 -233v-680q0 -160 -60.5 -232.5 t-216.5 -72.5h-94z" />
<glyph unicode="&#xa8;" horiz-adv-x="935" d="M82 1628v234q0 23 20 26h242q23 -4 23 -39v-6v-186v-18.5t-2 -18.5q-2 -14 -21 -14h-242q-20 2 -20 22zM569 1628v242q0 4 2 6l4 4q5 8 17 8h239q23 -4 23 -37v-8v-215q0 -12 -4 -16t-19 -6h-239q-14 2 -18.5 6t-4.5 16z" />
<glyph unicode="&#xa9;" horiz-adv-x="1720" d="M61 692q0 332 234.5 565.5t566.5 233.5t565.5 -234.5t233.5 -564.5t-234.5 -564t-564.5 -234t-565.5 233t-235.5 565zM201 691.5q0 -273.5 194.5 -467t467 -193.5t466 193.5t193.5 467t-193.5 468t-466 194.5t-467 -194.5t-194.5 -468zM502 713.5q0 95.5 1 146.5 t10 108.5t23.5 80t45 44t71.5 26.5t105 5h4v-841h-4q-92 0 -160 20q-41 14 -74 90q-18 41 -20 133t-2 187.5zM815 283v127h88q37 0 46 11t9 38v88h222q16 0 23 -6t7 -27v-49q0 -182 -184 -182h-211zM815 997v127h211q184 0 184 -180v-117h-219q-18 0 -25.5 6.5t-7.5 28.5v84 q0 29 -9 40t-46 11h-88z" />
<glyph unicode="&#xaa;" horiz-adv-x="727" d="M96 1196q0 188 27 239.5t149 51.5h113v-86h-63q-23 0 -34.5 -8.5t-12.5 -16.5t-1 -30v-295q0 -47 14.5 -51.5t33.5 -4.5h63v-86h-113q-121 0 -148.5 49.5t-27.5 237.5zM420 1038v449h47q127 0 127 -123v-324q0 -29 9 -37t28 -8h4q10 0 10 -8v-69l-6 -9h-94q-63 0 -94 30 t-31 99z" />
<glyph unicode="&#xab;" horiz-adv-x="1114" d="M33 545l461 583l168 -106l-304 -477l304 -500l-168 -106zM512 545l379 522l147 -106l-221 -416l201 -439l-148 -106z" />
<glyph unicode="&#xac;" horiz-adv-x="1339" d="M82 707v194h1124v-573h-174v379h-950z" />
<glyph unicode="&#xad;" horiz-adv-x="1001" d="M119 518v225h764v-225h-764z" />
<glyph unicode="&#xae;" horiz-adv-x="1720" d="M61 733q0 332 234.5 565.5t566.5 233.5t565.5 -234.5t233.5 -564.5t-234.5 -564.5t-564.5 -234.5t-565.5 233.5t-235.5 565.5zM201 732.5q0 -273.5 194.5 -467t467 -193.5t466 193.5t193.5 467t-193.5 468t-466 194.5t-467 -194.5t-194.5 -468zM518 328v823q0 27 16.5 44 t40.5 17h189v-972h-160q-53 0 -69.5 17t-16.5 71zM825 680v143h115q39 0 50 12.5t11 34.5v148q0 25 -11 35t-50 10h-115v149h191q168 0 214 -55t46 -212t-45 -211t-215 -54h-191zM967 301v334h196q47 0 65.5 -18.5t18.5 -69.5v-307h-219q-25 0 -43 17t-18 44z" />
<glyph unicode="&#xaf;" horiz-adv-x="808" d="M82 1632.5v68.5t5 55t34 13h567q27 0 33 -12t6 -44v-60.5t-2 -42.5q-2 -27 -37 -27h-567q-27 0 -33 11.5t-6 38z" />
<glyph unicode="&#xb0;" horiz-adv-x="753" d="M68 1237q0 129 88 220t217 91t221 -90t92 -221t-93 -223t-220 -92t-216 93t-89 222zM201 1234q0 -75 49 -125t122.5 -50t127 49t53.5 126t-53.5 127t-127 50t-122.5 -51t-49 -126z" />
<glyph unicode="&#xb1;" horiz-adv-x="1337" d="M96 0v205h1145v-205h-1145zM96 819v205h484v451h204v-451h457v-205h-457v-489h-204v489h-484z" />
<glyph unicode="&#xb2;" horiz-adv-x="593" d="M102 1329v68q0 45 13.5 65.5t56.5 20.5h156v-76h-74q-16 0 -20.5 -5t-4.5 -18v-88h-88q-29 0 -34 5.5t-5 27.5zM106 987v166q0 35 12.5 45t49.5 10h108v-73h-22q-20 0 -21 -23v-201h-67q-39 0 -49.5 12.5t-10.5 63.5zM264 911v90h203q18 0 18 -20v-70h-221zM307 1135v73 h31q23 0 22 25v250h60q66 0 65 -78v-201q0 -70 -69 -69h-109z" />
<glyph unicode="&#xb3;" horiz-adv-x="591" d="M100 993v68q0 29 8.5 32t30.5 3h86v-88q0 -23 25 -23h76v-76h-156q-45 0 -57.5 20.5t-12.5 63.5zM100 1327v68q0 45 12.5 65.5t57.5 20.5h156v-76h-76q-25 0 -25 -23v-88h-86q-37 0 -38 7.5t-1 25.5zM250 1161v76h84q23 0 22 14v230h68q33 0 46 -14.5t13 -47.5v-145 q0 -37 -20 -53q20 -18 20 -64v-180q0 -43 -12 -55.5t-55 -12.5h-60v230q0 23 -20 22h-86z" />
<glyph unicode="&#xb4;" horiz-adv-x="499" d="M82 1542v279q0 92 10 104t88 12h238l-189 -395h-147z" />
<glyph unicode="&#xb5;" horiz-adv-x="1081" d="M129 -457v1399q0 37 20.5 59.5t53.5 22.5h233v-1323q0 -70 -46 -114t-136 -44h-125zM487 0v154h111q53 0 68.5 14t15.5 47v727q0 37 20.5 59.5t53.5 22.5h233v-805q0 -219 -223 -219h-279z" />
<glyph unicode="&#xb6;" horiz-adv-x="1161" d="M90 903q0 166 2 224.5t7 124t18.5 96t35 62.5t56.5 44q76 27 194 27h158v-154h-29q-33 0 -38 -45q-2 -16 -2 -53v-520q0 -78 11 -88.5t29 -10.5h29v-153h-158q-78 0 -127 7t-85.5 31.5t-55 54.5t-29.5 97q-16 90 -16 256zM643 0v1481h148v-1481h-148zM852 0v1481h51 q82 0 97.5 -14.5t15.5 -96.5v-1259q0 -82 -15.5 -96.5t-97.5 -14.5h-51z" />
<glyph unicode="&#xb7;" horiz-adv-x="557" d="M119 498v270q2 18 7 22.5t21 4.5h203h72q10 -6 11 -9.5t3 -7.5t2 -10v-270q0 -25 -28 -25h-205t-79 4t-7 21z" />
<glyph unicode="&#xb8;" horiz-adv-x="483" d="M287 -182q0 14 3 17t19 3l84 -2q27 0 37 2q23 6 23 58v172h153v-279q0 -98 -35.5 -131t-160.5 -33h-123v193z" />
<glyph unicode="&#xb9;" horiz-adv-x="507" d="M86 909v76q0 14 20 14h95v-90h-115zM94 1411v70h107v-92h-86q-20 0 -21 22zM225 940v541h82q27 0 35 -9.5t8 -35.5v-437h64q20 0 20 -14v-76h-182q-27 0 -27 31z" />
<glyph unicode="&#xba;" horiz-adv-x="696" d="M96 1200.5q0 188.5 27 239.5t149 51h2v-436q0 -47 14.5 -51.5t33.5 -4.5h63v-86h-113q-121 0 -148.5 49.5t-27.5 238zM309 1405v86h113q121 0 148.5 -49t27.5 -238.5t-26.5 -240t-149.5 -50.5h-2v437v13t-2 19q-2 23 -45 23h-64z" />
<glyph unicode="&#xbb;" horiz-adv-x="1114" d="M76 961l147 106l379 -522l-358 -545l-148 106l201 439zM453 45l303 500l-303 477l168 106l460 -583l-460 -606z" />
<glyph unicode="&#xbc;" horiz-adv-x="1132" d="M78 0l823 1481h143l-823 -1481h-143zM82 909v76q0 10 3 12t17 2h97v-90h-117zM90 1411v70h109v-90h-86q-23 0 -23 20zM221 940v541h84q29 0 37 -9.5t8 -37.5v-435h62q14 0 17 -2t3 -12v-76h-184q-27 0 -27 31zM672 309v187q0 45 14 60t55 15h50v-237q0 -16 8 -18.5 t22 -2.5h29v-75h-94q-84 0 -84 71zM885 31v540h82q27 0 34 -9t7 -38v-211h47q23 0 22 -16v-59h-69v-238h-99q-25 0 -24 31z" />
<glyph unicode="&#xbd;" horiz-adv-x="1134" d="M74 0l823 1481h143l-823 -1481h-143zM82 909v76q0 10 3 12t17 2h97v-90h-117zM90 1411v70h109v-90h-86q-23 0 -23 20zM221 940v541h84q29 0 37 -9.5t8 -37.5v-435h62q14 0 17 -2t3 -12v-76h-184q-27 0 -27 31zM657 76v143q0 35 24 56.5t60 21.5h84v-82h-20q-23 0 -23 -20 v-195h-51q-41 0 -57.5 16.5t-16.5 59.5zM662 432v55q0 43 13 63.5t58 20.5h156v-73h-76q-16 0 -20.5 -5.5t-4.5 -19.5v-94h-69q-57 0 -57 53zM813 0v92h215q18 0 19 -20v-72h-234zM862 215v82h37q16 0 19.5 3t3.5 13v258h59q66 0 66 -75v-209q0 -72 -68 -72h-117z" />
<glyph unicode="&#xbe;" horiz-adv-x="1116" d="M63 0l824 1481h143l-823 -1481h-144zM98 993v58q0 35 14.5 44t37.5 9h73v-94q0 -27 23 -27h67v-74h-149q-31 0 -46.5 12.5t-17.5 27t-2 44.5zM98 1343v54q0 31 2 45t17.5 26.5t46.5 12.5h149v-74h-67q-16 0 -19.5 -5t-3.5 -20v-94h-73q-33 0 -42.5 14.5t-9.5 40.5z M254 1147v76h68q20 0 20 22v236h70q31 0 43 -13.5t12 -48.5v-159q0 -35 -16 -54q16 -16 16 -63v-160q0 -49 -11.5 -61.5t-52.5 -12.5h-59v215q0 23 -22 23h-68zM655 309v187q0 45 14.5 60t55.5 15h49v-237q0 -16 8.5 -18.5t22.5 -2.5h29v-75h-95q-84 0 -84 71zM868 31v540 h82q27 0 34 -9t7 -38v-211h47q23 0 23 -16v-59h-70v-238h-98q-25 0 -25 31z" />
<glyph unicode="&#xbf;" horiz-adv-x="1038" d="M72 176q0 184 180 184h311v-194h-108q-37 0 -46.5 -13.5t-9.5 -46.5v-530h-153q-174 0 -174 199v401zM479 -229h70q43 0 53 13t10 48v160h310v-197q0 -219 -304 -219h-139v195zM608 788v240q0 23 25 23h182.5t69.5 -4.5t6 -18.5v-240q-2 -14 -6 -18t-19 -4h-233 q-25 0 -25 22zM616 166l2 471h175q72 0 102.5 -24.5t30.5 -92.5v-186q0 -106 -37 -137t-164 -31h-109z" />
<glyph unicode="&#xc0;" horiz-adv-x="1251" d="M145 117v1247q0 72 21.5 94.5t91.5 22.5h438v-195h-190q-33 0 -33 -16v-1270h-215q-70 0 -91.5 22.5t-21.5 94.5zM367 1937h237q78 0 88 -12t10 -104v-279h-147zM555 686v195h223v600h215q70 0 91.5 -22.5t21.5 -94.5v-1245q0 -72 -22.5 -95.5t-90.5 -23.5h-215v686h-223 z" />
<glyph unicode="&#xc1;" horiz-adv-x="1251" d="M145 117v1247q0 72 21.5 94.5t91.5 22.5h438v-195h-190q-33 0 -33 -16v-1270h-215q-70 0 -91.5 22.5t-21.5 94.5zM545 1542v279q0 92 10 104t88 12h238l-189 -395h-147zM555 686v195h223v600h215q70 0 91.5 -22.5t21.5 -94.5v-1245q0 -72 -22.5 -95.5t-90.5 -23.5h-215 v686h-223z" />
<glyph unicode="&#xc2;" horiz-adv-x="1251" d="M145 117v1247q0 72 21.5 94.5t91.5 22.5h438v-195h-190q-33 0 -33 -16v-1270h-215q-70 0 -91.5 22.5t-21.5 94.5zM281 1563l155 288q29 55 39 60q12 6 37 6h221q20 0 30.5 -2t19 -3t15.5 -10.5t10 -15.5t13 -27.5t19 -37.5l131 -258h-228l-116 245l-117 -245h-229z M555 686v195h223v600h215q70 0 91.5 -22.5t21.5 -94.5v-1245q0 -72 -22.5 -95.5t-90.5 -23.5h-215v686h-223z" />
<glyph unicode="&#xc3;" horiz-adv-x="1251" d="M145 117v1247q0 72 21.5 94.5t91.5 22.5h438v-195h-190q-33 0 -33 -16v-1270h-215q-70 0 -91.5 22.5t-21.5 94.5zM305 1622v127q0 45 30 75.5t83 30.5h16l352 -55l9 -2q29 0 28 39v6q1 12 21 12h96l6 -6v-129q0 -49 -29.5 -77.5t-85.5 -28.5h-14l-352 51h-10 q-27 0 -27 -31v-8q0 -16 -8 -16h-109zM555 686v195h223v600h215q70 0 91.5 -22.5t21.5 -94.5v-1245q0 -72 -22.5 -95.5t-90.5 -23.5h-215v686h-223z" />
<glyph unicode="&#xc4;" horiz-adv-x="1251" d="M145 117v1247q0 72 21.5 94.5t91.5 22.5h438v-195h-190q-33 0 -33 -16v-1270h-215q-70 0 -91.5 22.5t-21.5 94.5zM242 1628v234q0 23 20 26h242q23 -4 22 -39v-6v-186v-18.5t-2 -18.5q-2 -14 -20 -14h-242q-20 2 -20 22zM555 686v195h223v600h215q70 0 91.5 -22.5 t21.5 -94.5v-1245q0 -72 -22.5 -95.5t-90.5 -23.5h-215v686h-223zM729 1628v242q0 4 2 6l4 4q5 8 17 8h239q23 -4 23 -37v-8v-215q0 -12 -4 -16t-19 -6h-239q-14 2 -18.5 6t-4.5 16z" />
<glyph unicode="&#xc5;" horiz-adv-x="1251" d="M145 117v1247q0 72 21.5 94.5t91.5 22.5h438v-195h-190q-33 0 -33 -16v-1270h-215q-70 0 -91.5 22.5t-21.5 94.5zM387 1776.5q0 97.5 69.5 167t168 69.5t167 -69.5t68.5 -167t-68.5 -168t-167 -70.5t-168 70.5t-69.5 168zM520 1778q0 -45 31 -76t75 -31t75.5 31t31.5 75 t-31.5 74.5t-75.5 30.5t-75 -29.5t-31 -74.5zM555 686v195h223v600h215q70 0 91.5 -22.5t21.5 -94.5v-1245q0 -72 -22.5 -95.5t-90.5 -23.5h-215v686h-223z" />
<glyph unicode="&#xc6;" horiz-adv-x="1847" d="M145 117v1247q0 72 21.5 94.5t91.5 22.5h438v-195h-190q-33 0 -33 -16v-1270h-215q-70 0 -91.5 22.5t-21.5 94.5zM555 686v195h223v600h215q70 0 91.5 -22.5t21.5 -94.5v-1245q0 -72 -22.5 -95.5t-90.5 -23.5h-215v686h-223zM1217 0v287h550v-174q0 -70 -22.5 -91.5 t-93.5 -21.5h-434zM1217 655v236h428v-123q0 -74 -14.5 -93.5t-82.5 -19.5h-331zM1217 1194v287h530v-174q0 -70 -22.5 -91.5t-94.5 -21.5h-413z" />
<glyph unicode="&#xc7;" horiz-adv-x="1247" d="M129 668.5q0 238.5 3 337t15.5 191.5t34 139t61.5 84t94 49.5t136 11.5h25v-1481h-25q-82 0 -136 12.5t-94 50t-61.5 85t-34.5 141.5q-18 141 -18 379.5zM477 -182q0 14 3.5 17t19.5 3l84 -2q27 0 34 2q25 6 25 58v172h154v-279q0 -98 -36 -131t-161 -33h-123v193zM580 0 v195h180q37 0 46 13t9 46v160q0 27 6 35t35 8h258q29 0 29 -43v-185q0 -127 -77 -178t-226 -51h-260zM580 1286v195h260q150 0 226.5 -51.5t76.5 -178.5v-184q0 -43 -29 -43h-258q-29 0 -35 8t-6 35v160q0 33 -9 46t-46 13h-180z" />
<glyph unicode="&#xc8;" horiz-adv-x="1185" d="M145 117v1247q0 72 21.5 94.5t91.5 22.5h215v-1481h-215q-70 0 -91.5 22.5t-21.5 94.5zM391 1937h238q78 0 88 -12t10 -104v-279h-147zM555 0v287h551v-174q0 -70 -22.5 -91.5t-94.5 -21.5h-434zM555 655v236h428v-123q0 -74 -14.5 -93.5t-81.5 -19.5h-332zM555 1194v287 h530v-174q0 -70 -22.5 -91.5t-93.5 -21.5h-414z" />
<glyph unicode="&#xc9;" horiz-adv-x="1185" d="M145 117v1247q0 72 21.5 94.5t91.5 22.5h215v-1481h-215q-70 0 -91.5 22.5t-21.5 94.5zM555 0v287h551v-174q0 -70 -22.5 -91.5t-94.5 -21.5h-434zM555 655v236h428v-123q0 -74 -14.5 -93.5t-81.5 -19.5h-332zM555 1194v287h530v-174q0 -70 -22.5 -91.5t-93.5 -21.5h-414 zM569 1542v279q0 92 10.5 104t88.5 12h237l-188 -395h-148z" />
<glyph unicode="&#xca;" horiz-adv-x="1185" d="M145 117v1247q0 72 21.5 94.5t91.5 22.5h215v-1481h-215q-70 0 -91.5 22.5t-21.5 94.5zM305 1563l156 288q29 55 39 60q12 6 37 6h221q20 0 30.5 -2t18.5 -3t15 -10.5t10.5 -15.5t13.5 -27.5t18 -37.5l131 -258h-227l-117 245l-116 -245h-230zM555 0v287h551v-174 q0 -70 -22.5 -91.5t-94.5 -21.5h-434zM555 655v236h428v-123q0 -74 -14.5 -93.5t-81.5 -19.5h-332zM555 1194v287h530v-174q0 -70 -22.5 -91.5t-93.5 -21.5h-414z" />
<glyph unicode="&#xcb;" horiz-adv-x="1185" d="M145 117v1247q0 72 21.5 94.5t91.5 22.5h215v-1481h-215q-70 0 -91.5 22.5t-21.5 94.5zM266 1628v234q0 23 21 26h241q23 -4 23 -39v-6v-186v-18.5t-2 -18.5q-2 -14 -21 -14h-241q-20 2 -21 22zM555 0v287h551v-174q0 -70 -22.5 -91.5t-94.5 -21.5h-434zM555 655v236h428 v-123q0 -74 -14.5 -93.5t-81.5 -19.5h-332zM555 1194v287h530v-174q0 -70 -22.5 -91.5t-93.5 -21.5h-414zM754 1628v242q0 4 2 6l4 4q4 8 16 8h240q23 -4 22 -37v-8v-215q0 -12 -4 -16t-18 -6h-240q-14 2 -18 6t-4 16z" />
<glyph unicode="&#xcc;" horiz-adv-x="620" d="M49 1937h238q78 0 88 -12t10 -104v-279h-147zM145 117v1247q0 72 21.5 94.5t91.5 22.5h215v-1481h-215q-70 0 -91.5 22.5t-21.5 94.5z" />
<glyph unicode="&#xcd;" horiz-adv-x="620" d="M145 117v1247q0 72 21.5 94.5t91.5 22.5h215v-1481h-215q-70 0 -91.5 22.5t-21.5 94.5zM227 1542v279q0 92 10.5 104t88.5 12h237l-188 -395h-148z" />
<glyph unicode="&#xce;" horiz-adv-x="620" d="M-37 1563l156 288q29 55 39 60q12 6 37 6h221q20 0 30.5 -2t18.5 -3t15 -10.5t10.5 -15.5t13.5 -27.5t18 -37.5l131 -258h-227l-117 245l-116 -245h-230zM145 117v1247q0 72 21.5 94.5t91.5 22.5h215v-1481h-215q-70 0 -91.5 22.5t-21.5 94.5z" />
<glyph unicode="&#xcf;" horiz-adv-x="620" d="M-20 1628v234q0 23 20 26h242q23 -4 22 -39v-6v-186v-18.5t-2 -18.5q-2 -14 -20 -14h-242q-20 2 -20 22zM145 117v1247q0 72 21.5 94.5t91.5 22.5h215v-1481h-215q-70 0 -91.5 22.5t-21.5 94.5zM365 1628v242q0 4 2 6l4 4q4 8 16 8h240q23 -4 22 -37v-8v-215 q0 -12 -4 -16t-18 -6h-240q-14 2 -18 6t-4 16z" />
<glyph unicode="&#xd0;" horiz-adv-x="1271" d="M20 633v192h682v-192h-682zM158 115v1249q0 70 22.5 93.5t89.5 23.5h215v-1483h-215q-68 0 -90 23.5t-22 93.5zM547 0v195h151q51 0 67.5 12t16.5 47v971q0 37 -16 49t-68 12h-151v195h321q150 0 208.5 -69t58.5 -267l-5 -402l3 -346q0 -244 -61.5 -320.5t-223.5 -76.5 h-301z" />
<glyph unicode="&#xd1;" horiz-adv-x="1417" d="M147 0v1217h213q33 0 53.5 -23t20.5 -59v-1018q0 -70 -18.5 -93.5t-73.5 -23.5h-195zM147 1288v193h445q51 0 82 -12.5t50 -52.5t26.5 -76.5t15.5 -86.5q10 -59 29 -174q35 -231 108 -653q29 -180 40 -201.5t40 -25.5v1200q0 37 20.5 59.5t53.5 22.5h213v-1364 q0 -72 -21.5 -94.5t-91.5 -22.5h-291q-121 0 -158.5 37t-66.5 190q-57 303 -166 979q-8 51 -23.5 65.5t-52.5 16.5h-252zM408 1622v127q0 45 29.5 75.5t82.5 30.5h17l352 -55q2 0 8 -2q29 0 29 39v6q0 12 20 12h96l7 -6v-129q0 -49 -30 -77.5t-85 -28.5h-14l-353 51h-10 q-27 0 -27 -31v-8q0 -16 -8 -16h-108z" />
<glyph unicode="&#xd2;" horiz-adv-x="1312" d="M129 668.5q0 238.5 3 337t15.5 191.5t34 139t61.5 84t94 49.5t136 11.5h25v-1227q0 -31 15 -45t69 -14h151v-195h-260q-82 0 -136 12.5t-94 50t-61.5 85t-34.5 141.5q-18 141 -18 379.5zM403 1937h238q78 0 88 -12t10 -104v-279h-147zM580 1284v195h260q82 0 136 -12.5 t94 -50.5t61.5 -85t33.5 -141q18 -141 18.5 -380t-2.5 -337t-15.5 -191.5t-34 -139.5t-61.5 -84t-94 -49t-136 -11h-25v1227q0 31 -15.5 45t-68.5 14h-151z" />
<glyph unicode="&#xd3;" horiz-adv-x="1312" d="M129 668.5q0 238.5 3 337t15.5 191.5t34 139t61.5 84t94 49.5t136 11.5h25v-1227q0 -31 15 -45t69 -14h151v-195h-260q-82 0 -136 12.5t-94 50t-61.5 85t-34.5 141.5q-18 141 -18 379.5zM580 1284v195h260q82 0 136 -12.5t94 -50.5t61.5 -85t33.5 -141q18 -141 18.5 -380 t-2.5 -337t-15.5 -191.5t-34 -139.5t-61.5 -84t-94 -49t-136 -11h-25v1227q0 31 -15.5 45t-68.5 14h-151zM582 1542v279q0 92 10 104t88 12h238l-189 -395h-147z" />
<glyph unicode="&#xd4;" horiz-adv-x="1312" d="M129 668.5q0 238.5 3 337t15.5 191.5t34 139t61.5 84t94 49.5t136 11.5h25v-1227q0 -31 15 -45t69 -14h151v-195h-260q-82 0 -136 12.5t-94 50t-61.5 85t-34.5 141.5q-18 141 -18 379.5zM317 1563l156 288q29 55 39 60q12 6 37 6h221q20 0 30.5 -2t18.5 -3t15.5 -10.5 t10.5 -15.5t13 -27.5t19 -37.5l131 -258h-228l-116 245l-117 -245h-230zM580 1284v195h260q82 0 136 -12.5t94 -50.5t61.5 -85t33.5 -141q18 -141 18.5 -380t-2.5 -337t-15.5 -191.5t-34 -139.5t-61.5 -84t-94 -49t-136 -11h-25v1227q0 31 -15.5 45t-68.5 14h-151z" />
<glyph unicode="&#xd5;" horiz-adv-x="1312" d="M129 668.5q0 238.5 3 337t15.5 191.5t34 139t61.5 84t94 49.5t136 11.5h25v-1227q0 -31 15 -45t69 -14h151v-195h-260q-82 0 -136 12.5t-94 50t-61.5 85t-34.5 141.5q-18 141 -18 379.5zM342 1622v127q0 45 29.5 75.5t83.5 30.5h16l352 -55l8 -2q29 0 29 39v6q1 12 21 12 h96l6 -6v-129q0 -49 -29.5 -77.5t-85.5 -28.5h-14l-352 51h-10q-27 0 -27 -31v-8q0 -16 -8 -16h-109zM580 1284v195h260q82 0 136 -12.5t94 -50.5t61.5 -85t33.5 -141q18 -141 18.5 -380t-2.5 -337t-15.5 -191.5t-34 -139.5t-61.5 -84t-94 -49t-136 -11h-25v1227 q0 31 -15.5 45t-68.5 14h-151z" />
<glyph unicode="&#xd6;" horiz-adv-x="1312" d="M129 668.5q0 238.5 3 337t15.5 191.5t34 139t61.5 84t94 49.5t136 11.5h25v-1227q0 -31 15 -45t69 -14h151v-195h-260q-82 0 -136 12.5t-94 50t-61.5 85t-34.5 141.5q-18 141 -18 379.5zM279 1628v234q0 23 20 26h242q23 -4 22 -39v-6v-186v-18.5t-2 -18.5 q-2 -14 -20 -14h-242q-20 2 -20 22zM580 1284v195h260q82 0 136 -12.5t94 -50.5t61.5 -85t33.5 -141q18 -141 18.5 -380t-2.5 -337t-15.5 -191.5t-34 -139.5t-61.5 -84t-94 -49t-136 -11h-25v1227q0 31 -15.5 45t-68.5 14h-151zM766 1628v242q0 4 2 6l4 4q4 8 16 8h240 q23 -4 23 -37v-8v-215q0 -12 -4.5 -16t-18.5 -6h-240q-14 2 -18 6t-4 16z" />
<glyph unicode="&#xd7;" horiz-adv-x="1173" d="M66 115l405 405l-403 406l114 114l404 -405l405 405l115 -114l-406 -406l408 -405l-115 -115l-407 406l-404 -406z" />
<glyph unicode="&#xd8;" horiz-adv-x="1312" d="M25 -457l708 1602v-346l-545 -1256h-163zM131.5 670.5q-0.5 238.5 2.5 337t15.5 191.5t34 139t61.5 84t94 49.5t136 11.5h25v-1227q0 -31 15 -45t69 -14h151v-195h-260q-82 0 -136 12.5t-94 50t-61.5 85t-33.5 141.5q-18 141 -18.5 379.5zM582 1286v195h260 q82 0 136 -12.5t94 -50.5t61.5 -85t33.5 -141q18 -141 18.5 -380t-2.5 -337t-15.5 -191.5t-34 -139.5t-61.5 -83.5t-94 -49t-136 -11.5h-25v1227q0 31 -15.5 45t-68.5 14h-151zM819 977l27 -14l399 866h-164l-262 -576v-276z" />
<glyph unicode="&#xd9;" horiz-adv-x="1302" d="M143 229v1135q0 72 21.5 94.5t91.5 22.5h215v-1227q0 -33 9 -46t46 -13h222v-195h-302q-150 0 -226.5 51t-76.5 178zM381 1937h237q78 0 88.5 -12t10.5 -104v-279h-148zM809 229v1252h215q70 0 91.5 -22.5t21.5 -94.5v-1110q0 -33 9 -46t46 -13h37v-195h-117 q-150 0 -226.5 51t-76.5 178z" />
<glyph unicode="&#xda;" horiz-adv-x="1302" d="M143 229v1135q0 72 21.5 94.5t91.5 22.5h215v-1227q0 -33 9 -46t46 -13h222v-195h-302q-150 0 -226.5 51t-76.5 178zM559 1542v279q0 92 10.5 104t87.5 12h238l-188 -395h-148zM809 229v1252h215q70 0 91.5 -22.5t21.5 -94.5v-1110q0 -33 9 -46t46 -13h37v-195h-117 q-150 0 -226.5 51t-76.5 178z" />
<glyph unicode="&#xdb;" horiz-adv-x="1302" d="M143 229v1135q0 72 21.5 94.5t91.5 22.5h215v-1227q0 -33 9 -46t46 -13h222v-195h-302q-150 0 -226.5 51t-76.5 178zM295 1563l156 288q29 55 38 60q12 6 37 6h222q20 0 30 -2t18.5 -3t15.5 -10.5t10 -15.5t13.5 -27.5t18.5 -37.5l131 -258h-227l-117 245l-117 -245h-229 zM809 229v1252h215q70 0 91.5 -22.5t21.5 -94.5v-1110q0 -33 9 -46t46 -13h37v-195h-117q-150 0 -226.5 51t-76.5 178z" />
<glyph unicode="&#xdc;" horiz-adv-x="1302" d="M143 229v1135q0 72 21.5 94.5t91.5 22.5h215v-1227q0 -33 9 -46t46 -13h222v-195h-302q-150 0 -226.5 51t-76.5 178zM256 1628v234q0 23 20 26h242q23 -4 23 -39v-6v-186v-18.5v-18.5q-4 -14 -23 -14h-242q-20 2 -20 22zM743 1628v242q0 4 2.5 6t4.5 4q4 8 16 8h240 q23 -4 22 -37v-8v-215q0 -12 -4 -16t-18 -6h-240q-14 2 -18.5 6t-4.5 16zM809 229v1252h215q70 0 91.5 -22.5t21.5 -94.5v-1110q0 -33 9 -46t46 -13h37v-195h-117q-150 0 -226.5 51t-76.5 178z" />
<glyph unicode="&#xdd;" horiz-adv-x="1150" d="M90 791v593q0 96 113 97h215v-584q0 -33 10 -46t47 -13h74v-195h-320q-78 0 -108.5 36t-30.5 112zM383 117v327q0 72 21.5 94.5t91.5 22.5h256v-561h-256q-70 0 -91.5 22.5t-21.5 94.5zM492 1542v279q0 92 10 104t88 12h237l-188 -395h-147zM631 643v195h49q37 0 46 14 t9 45v584h215q61 0 87 -24.5t26 -92.5v-578q0 -143 -119 -143h-313z" />
<glyph unicode="&#xde;" horiz-adv-x="1212" d="M145 117v1282q0 37 20.5 59.5t53.5 22.5h254v-1481h-215q-70 0 -91.5 22.5t-21.5 94.5zM555 305v195h152q53 0 68.5 14t15.5 45v402q0 33 -15.5 47t-68.5 14h-152v195h260q195 0 259.5 -91.5t64.5 -365.5q0 -182 -40 -284.5t-105.5 -136.5t-178.5 -34h-260z" />
<glyph unicode="&#xdf;" horiz-adv-x="1077" d="M14 0v96q0 61 52 62h104v1054q0 150 67.5 209.5t217.5 59.5h155q12 -2 13 -17v-125q0 -14 -17 -14h-43q-86 0 -86 -76v-1546q0 -70 -46 -115t-136 -45h-125v457h-156zM539 0v154h69q43 0 53.5 13t10.5 48v604h84q223 0 223 -219v-381q0 -219 -223 -219h-217zM543 850v154 h69q43 0 53.5 13t10.5 48v418h84q113 0 169 -53.5t56 -145.5v-215q0 -219 -225 -219h-217z" />
<glyph unicode="&#xe0;" horiz-adv-x="1120" d="M104.5 446q-0.5 166 2 224.5t7.5 124t18 96.5t34.5 62.5t56.5 43.5q76 27 195 27h198v-154h-110q-63 0 -72 -22q-12 -27 -12 -76v-520v-24.5t4 -34.5q8 -39 80 -39h110v-154h-198q-78 0 -127 7t-86 31.5t-55.5 54.5t-30.5 95q-14 92 -14.5 258zM311 1481h238 q78 0 88 -12.5t10 -104.5v-279h-147zM678 227v797h84q129 0 176 -60.5t47 -158.5v-574q0 -63 27 -71q14 -6 39 -6h10q16 0 16 -15v-125q0 -14 -8 -14h-168q-115 0 -169 53t-54 174z" />
<glyph unicode="&#xe1;" horiz-adv-x="1120" d="M104.5 446q-0.5 166 2 224.5t7.5 124t18 96.5t34.5 62.5t56.5 43.5q76 27 195 27h198v-154h-110q-63 0 -72 -22q-12 -27 -12 -76v-520v-24.5t4 -34.5q8 -39 80 -39h110v-154h-198q-78 0 -127 7t-86 31.5t-55.5 54.5t-30.5 95q-14 92 -14.5 258zM489 1085v279 q0 92 10.5 104.5t88.5 12.5h237l-188 -396h-148zM678 227v797h84q129 0 176 -60.5t47 -158.5v-574q0 -63 27 -71q14 -6 39 -6h10q16 0 16 -15v-125q0 -14 -8 -14h-168q-115 0 -169 53t-54 174z" />
<glyph unicode="&#xe2;" horiz-adv-x="1120" d="M104.5 446q-0.5 166 2 224.5t7.5 124t18 96.5t34.5 62.5t56.5 43.5q76 27 195 27h198v-154h-110q-63 0 -72 -22q-12 -27 -12 -76v-520v-24.5t4 -34.5q8 -39 80 -39h110v-154h-198q-78 0 -127 7t-86 31.5t-55.5 54.5t-30.5 95q-14 92 -14.5 258zM225 1106l156 289 q29 55 39 59q12 6 37 6h221q20 0 30.5 -2t18.5 -3t15.5 -10t10.5 -15.5t13 -28t18 -37.5l131 -258h-227l-117 246l-116 -246h-230zM678 227v797h84q129 0 176 -60.5t47 -158.5v-574q0 -63 27 -71q14 -6 39 -6h10q16 0 16 -15v-125q0 -14 -8 -14h-168q-115 0 -169 53t-54 174 z" />
<glyph unicode="&#xe3;" horiz-adv-x="1120" d="M104.5 446q-0.5 166 2 224.5t7.5 124t18 96.5t34.5 62.5t56.5 43.5q76 27 195 27h198v-154h-110q-63 0 -72 -22q-12 -27 -12 -76v-520v-24.5t4 -34.5q8 -39 80 -39h110v-154h-198q-78 0 -127 7t-86 31.5t-55.5 54.5t-30.5 95q-14 92 -14.5 258zM250 1165v127 q0 47 30.5 77t81.5 30h17l352 -56l8 -2q29 0 29 39v6q0 12 20 13h97l6 -6v-129q0 -49 -30 -78t-85 -29h-14l-352 51h-11q-27 0 -26 -30v-9q0 -16 -8 -16h-109zM678 227v797h84q129 0 176 -60.5t47 -158.5v-574q0 -63 27 -71q14 -6 39 -6h10q16 0 16 -15v-125q0 -14 -8 -14 h-168q-115 0 -169 53t-54 174z" />
<glyph unicode="&#xe4;" horiz-adv-x="1120" d="M104.5 446q-0.5 166 2 224.5t7.5 124t18 96.5t34.5 62.5t56.5 43.5q76 27 195 27h198v-154h-110q-63 0 -72 -22q-12 -27 -12 -76v-520v-24.5t4 -34.5q8 -39 80 -39h110v-154h-198q-78 0 -127 7t-86 31.5t-55.5 54.5t-30.5 95q-14 92 -14.5 258zM186 1171v234q0 23 21 27 h242q23 -4 22 -39v-7v-186v-18.5v-18.5q-4 -14 -22 -14h-242q-20 2 -21 22zM674 1171v242q0 4 2 6t4 6q4 7 16 7h240q23 -4 22 -37v-9v-215q0 -12 -4 -16t-18 -6h-240q-14 2 -18 6t-4 16zM678 227v797h84q129 0 176 -60.5t47 -158.5v-574q0 -63 27 -71q14 -6 39 -6h10 q16 0 16 -15v-125q0 -14 -8 -14h-168q-115 0 -169 53t-54 174z" />
<glyph unicode="&#xe5;" horiz-adv-x="1120" d="M104.5 446q-0.5 166 2 224.5t7.5 124t18 96.5t34.5 62.5t56.5 43.5q76 27 195 27h198v-154h-110q-63 0 -72 -22q-12 -27 -12 -76v-520v-24.5t4 -34.5q8 -39 80 -39h110v-154h-198q-78 0 -127 7t-86 31.5t-55.5 54.5t-30.5 95q-14 92 -14.5 258zM309 1349.5 q0 108.5 77 184.5t184.5 76t183 -76t75.5 -184.5t-75.5 -185.5t-183 -77t-184.5 77t-77 185.5zM455 1351q0 -48 33.5 -83t81.5 -35t83 35t35 83t-35 81.5t-83 33.5t-81.5 -33.5t-33.5 -81.5zM678 227v797h84q129 0 176 -60.5t47 -158.5v-574q0 -63 27 -71q14 -6 39 -6h10 q16 0 16 -15v-125q0 -14 -8 -14h-168q-115 0 -169 53t-54 174z" />
<glyph unicode="&#xe6;" horiz-adv-x="1634" d="M104.5 446q-0.5 166 2 224.5t7.5 124t18 96.5t34.5 62.5t56.5 43.5q76 27 195 27h198v-154h-110q-63 0 -72 -22q-12 -27 -12 -76v-520v-24.5t4 -34.5q8 -39 80 -39h110v-154h-198q-78 0 -127 7t-86 31.5t-55.5 54.5t-30.5 95q-14 92 -14.5 258zM678 532v492h84 q231 0 231 -219v-805h-4q-221 0 -266 89t-45 443zM1036 440v154h111q49 0 66.5 12t17.5 47v156q0 35 -10.5 48t-53.5 13h-110v154h237q141 0 192.5 -55.5t51.5 -163.5v-180q0 -184 -201 -185h-301zM1057 0v154h110q43 0 53.5 13t10.5 48v66q0 31 7 34.5t9 5t11.5 2.5t11.5 1 h268v-105q0 -219 -223 -219h-258z" />
<glyph unicode="&#xe7;" horiz-adv-x="1054" d="M104.5 493.5q-0.5 145.5 2 210t13.5 131t29.5 96.5t55.5 54.5t86 31.5t127 7h4v-1024h-4q-203 0 -250 70q-23 33 -36 63.5t-17 95.5q-10 119 -10.5 264.5zM377 -182q0 14 3 17t19 3l84 -2q27 0 37 2q23 6 23 58v172h153v-279q0 -98 -35.5 -131t-160.5 -33h-123v193z M485 0v154h111q43 0 53 13t10 48v109h209t74 -1t7 -2.5t7 -3.5t4.5 -5t2.5 -9q4 -14 4 -22v-62q0 -219 -224 -219h-258zM485 870v154h258q223 0 224 -219v-139h-209t-74 1t-7 2t-7 3t-4 5t-2 7q-4 16 -5 25v100q0 35 -10 48t-53 13h-111z" />
<glyph unicode="&#xe8;" horiz-adv-x="1064" d="M104.5 493.5q-0.5 145.5 2 210t13.5 131t29.5 96.5t55.5 54.5t86 31.5t127 7h4v-1024h-4q-203 0 -250 70q-23 33 -36 63.5t-17 95.5q-10 119 -10.5 264.5zM276 1481h238q78 0 88 -12.5t10 -104.5v-279h-147zM465 440v154h110q49 0 66.5 12t17.5 47v156q0 35 -10 48 t-53 13h-111v154h238q141 0 192.5 -55.5t51.5 -163.5v-180q0 -184 -201 -185h-301zM485 0v154h111q43 0 53 13t10 48v66q0 31 7.5 34.5t9.5 5t11 2.5t13 1h267v-105q0 -219 -224 -219h-258z" />
<glyph unicode="&#xe9;" horiz-adv-x="1064" d="M104.5 493.5q-0.5 145.5 2 210t13.5 131t29.5 96.5t55.5 54.5t86 31.5t127 7h4v-1024h-4q-203 0 -250 70q-23 33 -36 63.5t-17 95.5q-10 119 -10.5 264.5zM455 1085v279q0 92 10 104.5t88 12.5h238l-189 -396h-147zM465 440v154h110q49 0 66.5 12t17.5 47v156 q0 35 -10 48t-53 13h-111v154h238q141 0 192.5 -55.5t51.5 -163.5v-180q0 -184 -201 -185h-301zM485 0v154h111q43 0 53 13t10 48v66q0 31 7.5 34.5t9.5 5t11 2.5t13 1h267v-105q0 -219 -224 -219h-258z" />
<glyph unicode="&#xea;" horiz-adv-x="1064" d="M104.5 493.5q-0.5 145.5 2 210t13.5 131t29.5 96.5t55.5 54.5t86 31.5t127 7h4v-1024h-4q-203 0 -250 70q-23 33 -36 63.5t-17 95.5q-10 119 -10.5 264.5zM190 1106l156 289q29 55 39 59q12 6 37 6h221q20 0 30.5 -2t18.5 -3t15.5 -10t10.5 -15.5t13 -28t19 -37.5 l131 -258h-228l-116 246l-117 -246h-230zM465 440v154h110q49 0 66.5 12t17.5 47v156q0 35 -10 48t-53 13h-111v154h238q141 0 192.5 -55.5t51.5 -163.5v-180q0 -184 -201 -185h-301zM485 0v154h111q43 0 53 13t10 48v66q0 31 7.5 34.5t9.5 5t11 2.5t13 1h267v-105 q0 -219 -224 -219h-258z" />
<glyph unicode="&#xeb;" horiz-adv-x="1064" d="M104.5 493.5q-0.5 145.5 2 210t13.5 131t29.5 96.5t55.5 54.5t86 31.5t127 7h4v-1024h-4q-203 0 -250 70q-23 33 -36 63.5t-17 95.5q-10 119 -10.5 264.5zM152 1171v234q0 23 20 27h242q23 -4 22 -39v-7v-186v-18.5t-2 -18.5q-2 -14 -20 -14h-242q-20 2 -20 22zM465 440 v154h110q49 0 66.5 12t17.5 47v156q0 35 -10 48t-53 13h-111v154h238q141 0 192.5 -55.5t51.5 -163.5v-180q0 -184 -201 -185h-301zM485 0v154h111q43 0 53 13t10 48v66q0 31 7.5 34.5t9.5 5t11 2.5t13 1h267v-105q0 -219 -224 -219h-258zM639 1171v242q0 4 2 6t4 6 q5 7 17 7h239q23 -4 23 -37v-9v-215q0 -12 -4.5 -16t-18.5 -6h-239q-14 2 -18.5 6t-4.5 16z" />
<glyph unicode="&#xec;" horiz-adv-x="542" d="M57 1481h238q78 0 88 -12.5t10 -104.5v-279h-147zM119 82v940h125q90 0 136 -44t46 -114v-864h-233q-33 0 -53.5 22.5t-20.5 59.5z" />
<glyph unicode="&#xed;" horiz-adv-x="542" d="M119 82v940h125q90 0 136 -44t46 -114v-864h-233q-33 0 -53.5 22.5t-20.5 59.5zM119 1085v279q0 92 10 104.5t88 12.5h238l-189 -396h-147z" />
<glyph unicode="&#xee;" horiz-adv-x="542" d="M-145 1106l155 289q29 55 39 59q12 6 37 6h221q20 0 30.5 -2t19 -3t15.5 -10t10 -15.5t13.5 -28t18.5 -37.5l131 -258h-228l-116 246l-117 -246h-229zM119 82v940h125q90 0 136 -44t46 -114v-864h-233q-33 0 -53.5 22.5t-20.5 59.5z" />
<glyph unicode="&#xef;" horiz-adv-x="542" d="M-47 1243v209q0 20 18 25h222q20 -4 20 -19v-192q0 -31 -2 -38t-18 -9h-222q-18 2 -18 24zM119 82v940h125q90 0 136 -44t46 -114v-864h-233q-33 0 -53.5 22.5t-20.5 59.5zM301 1243v209q0 20 21 25h219q20 -4 20 -19v-192q0 -41 -5 -44t-15 -3h-219q-20 2 -21 24z" />
<glyph unicode="&#xf0;" horiz-adv-x="1146" d="M104.5 493.5q-0.5 145.5 2 210t13.5 131t29.5 96.5t55.5 54.5t86 31.5t127 7h198v-154h-110q-53 0 -68.5 -14t-15.5 -47v-596q0 -31 15.5 -45t68.5 -14h110v-154h-198q-203 0 -250 70q-23 33 -36 63.5t-17 95.5q-10 119 -10.5 264.5zM487 1339v125q0 12 13 17h196 q150 0 217.5 -59.5t67.5 -209.5v-188h156v-96q0 -61 -52 -62h-104v-706q0 -70 -46 -115t-136 -45h-125v1249q0 76 -86 76h-84q-16 0 -17 14z" />
<glyph unicode="&#xf1;" d="M119 82v942h125q90 0 136 -44t46 -114v-866h-233q-33 0 -53.5 22.5t-20.5 59.5zM231 1165v127q0 47 30 77t83 30h16l353 -56l8 -2q29 0 29 39v6q0 13 20 13h96l6 -6v-129q0 -49 -29.5 -78t-84.5 -29h-15l-352 51h-10q-27 0 -27 -30v-9q0 -16 -8 -16h-108zM477 870v154 h287q223 0 223 -219v-805h-233q-33 0 -53.5 22.5t-20.5 59.5v727q0 33 -15.5 47t-68.5 14h-119z" />
<glyph unicode="&#xf2;" horiz-adv-x="1099" d="M104.5 446q-0.5 166 2 224.5t7.5 124t18 96.5t34.5 62.5t56.5 43.5q76 27 195 27h4v-772v-24.5t4 -34.5q8 -39 80 -39h110v-154h-198q-78 0 -127 7t-86 31.5t-55.5 54.5t-30.5 95q-14 92 -14.5 258zM305 1481h238q78 0 88 -12.5t10 -104.5v-279h-147zM483 870v154h199 q78 0 127 -7t86 -31.5t55.5 -54.5t28.5 -95q16 -92 16 -258t-2 -224.5t-7 -124t-18.5 -96.5t-35 -62.5t-55.5 -43.5q-76 -27 -195 -27h-4v772v24.5t-2 34.5q-10 39 -82 39h-111z" />
<glyph unicode="&#xf3;" horiz-adv-x="1099" d="M104.5 446q-0.5 166 2 224.5t7.5 124t18 96.5t34.5 62.5t56.5 43.5q76 27 195 27h4v-772v-24.5t4 -34.5q8 -39 80 -39h110v-154h-198q-78 0 -127 7t-86 31.5t-55.5 54.5t-30.5 95q-14 92 -14.5 258zM483 870v154h199q78 0 127 -7t86 -31.5t55.5 -54.5t28.5 -95 q16 -92 16 -258t-2 -224.5t-7 -124t-18.5 -96.5t-35 -62.5t-55.5 -43.5q-76 -27 -195 -27h-4v772v24.5t-2 34.5q-10 39 -82 39h-111zM483 1085v279q0 92 10.5 104.5t88.5 12.5h237l-188 -396h-148z" />
<glyph unicode="&#xf4;" horiz-adv-x="1099" d="M104.5 446q-0.5 166 2 224.5t7.5 124t18 96.5t34.5 62.5t56.5 43.5q76 27 195 27h4v-772v-24.5t4 -34.5q8 -39 80 -39h110v-154h-198q-78 0 -127 7t-86 31.5t-55.5 54.5t-30.5 95q-14 92 -14.5 258zM219 1106l156 289q29 55 39 59q12 6 37 6h221q20 0 30.5 -2t18.5 -3 t15 -10t10.5 -15.5t13.5 -28t18 -37.5l131 -258h-227l-117 246l-116 -246h-230zM483 870v154h199q78 0 127 -7t86 -31.5t55.5 -54.5t28.5 -95q16 -92 16 -258t-2 -224.5t-7 -124t-18.5 -96.5t-35 -62.5t-55.5 -43.5q-76 -27 -195 -27h-4v772v24.5t-2 34.5q-10 39 -82 39 h-111z" />
<glyph unicode="&#xf5;" horiz-adv-x="1099" d="M104.5 446q-0.5 166 2 224.5t7.5 124t18 96.5t34.5 62.5t56.5 43.5q76 27 195 27h4v-772v-24.5t4 -34.5q8 -39 80 -39h110v-154h-198q-78 0 -127 7t-86 31.5t-55.5 54.5t-30.5 95q-14 92 -14.5 258zM244 1165v127q0 47 29.5 77t82.5 30h17l352 -56l8 -2q29 0 29 39v6 q0 13 20 13h97l6 -6v-129q0 -49 -30 -78t-85 -29h-14l-353 51h-10q-27 0 -26 -30v-9q0 -16 -9 -16h-108zM483 870v154h199q78 0 127 -7t86 -31.5t55.5 -54.5t28.5 -95q16 -92 16 -258t-2 -224.5t-7 -124t-18.5 -96.5t-35 -62.5t-55.5 -43.5q-76 -27 -195 -27h-4v772v24.5 t-2 34.5q-10 39 -82 39h-111z" />
<glyph unicode="&#xf6;" horiz-adv-x="1099" d="M104.5 446q-0.5 166 2 224.5t7.5 124t18 96.5t34.5 62.5t56.5 43.5q76 27 195 27h4v-772v-24.5t4 -34.5q8 -39 80 -39h110v-154h-198q-78 0 -127 7t-86 31.5t-55.5 54.5t-30.5 95q-14 92 -14.5 258zM180 1171v234q0 23 21 27h241q23 -4 23 -39v-7v-186v-18.5t-2 -18.5 q-2 -14 -21 -14h-241q-20 2 -21 22zM483 870v154h199q78 0 127 -7t86 -31.5t55.5 -54.5t28.5 -95q16 -92 16 -258t-2 -224.5t-7 -124t-18.5 -96.5t-35 -62.5t-55.5 -43.5q-76 -27 -195 -27h-4v772v24.5t-2 34.5q-10 39 -82 39h-111zM668 1171v242q0 4 2 6t4 6q4 7 16 7h240 q23 -4 22 -37v-9v-215q0 -12 -4 -16t-18 -6h-240q-14 2 -18 6t-4 16z" />
<glyph unicode="&#xf7;" horiz-adv-x="1300" d="M78 424v205h1145v-205h-1145zM473 86v240q2 14 5 18t18 4h233q27 0 27 -22v-240q-2 -16 -9.5 -19.5t-21.5 -3.5h-229q-14 0 -17.5 4.5t-5.5 18.5zM473 733v242q2 14 5 17t18 3h213h28.5t18.5 -20v-242q-4 -23 -41 -22h-6h-213q-14 0 -17.5 3t-5.5 19z" />
<glyph unicode="&#xf8;" horiz-adv-x="1099" d="M39 -457l225 584h164l-225 -584h-164zM104 446.5q0 -165.5 15 -258.5q12 -66 30.5 -95.5t55.5 -54t86 -31.5t127 -7h198v154h-110q-72 0 -80 39q-4 14 -4 34.5v24.5v772h-4q-119 0 -195 -27q-35 -12 -56.5 -43.5t-34.5 -62.5t-18 -96.5t-7.5 -124t-2.5 -224zM483 870v154 h199q78 0 127 -7t86 -31.5t55.5 -54.5t28.5 -95q16 -92 16 -258t-2 -224.5t-7 -124t-18.5 -96.5t-35 -62.5t-55.5 -43.5q-76 -27 -195 -27h-4v772v24.5t-2 34.5q-10 39 -82 39h-111zM586 958h164l202 523h-164z" />
<glyph unicode="&#xf9;" horiz-adv-x="1122" d="M115 219v805h233q33 0 53.5 -22.5t20.5 -59.5v-727q0 -33 15.5 -47t68.5 -14h119v-154h-287q-223 0 -223 219zM274 1481h238q78 0 88 -12.5t10 -104.5v-279h-147zM676 158v866h233q33 0 53.5 -22.5t20.5 -59.5v-711q0 -63 27 -71q14 -6 39 -6h10q16 0 16 -15v-125 q0 -14 -10 -14h-207q-90 0 -136 44t-46 114z" />
<glyph unicode="&#xfa;" horiz-adv-x="1122" d="M115 219v805h233q33 0 53.5 -22.5t20.5 -59.5v-727q0 -33 15.5 -47t68.5 -14h119v-154h-287q-223 0 -223 219zM453 1085v279q0 92 10 104.5t88 12.5h237l-188 -396h-147zM676 158v866h233q33 0 53.5 -22.5t20.5 -59.5v-711q0 -63 27 -71q14 -6 39 -6h10q16 0 16 -15v-125 q0 -14 -10 -14h-207q-90 0 -136 44t-46 114z" />
<glyph unicode="&#xfb;" horiz-adv-x="1122" d="M115 219v805h233q33 0 53.5 -22.5t20.5 -59.5v-727q0 -33 15.5 -47t68.5 -14h119v-154h-287q-223 0 -223 219zM188 1106l156 289q29 55 39 59q12 6 37 6h221q20 0 30.5 -2t18.5 -3t15.5 -10t10.5 -15.5t13 -28t19 -37.5l131 -258h-228l-116 246l-117 -246h-230zM676 158 v866h233q33 0 53.5 -22.5t20.5 -59.5v-711q0 -63 27 -71q14 -6 39 -6h10q16 0 16 -15v-125q0 -14 -10 -14h-207q-90 0 -136 44t-46 114z" />
<glyph unicode="&#xfc;" horiz-adv-x="1122" d="M115 219v805h233q33 0 53.5 -22.5t20.5 -59.5v-727q0 -33 15.5 -47t68.5 -14h119v-154h-287q-223 0 -223 219zM150 1171v234q0 23 20 27h242q23 -4 22 -39v-7v-186v-18.5v-18.5q-4 -14 -22 -14h-242q-20 2 -20 22zM637 1171v242q0 4 2 6t4 6q4 7 16 7h240q23 -4 23 -37 v-9v-215q0 -12 -4.5 -16t-18.5 -6h-240q-14 2 -18 6t-4 16zM676 158v866h233q33 0 53.5 -22.5t20.5 -59.5v-711q0 -63 27 -71q14 -6 39 -6h10q16 0 16 -15v-125q0 -14 -10 -14h-207q-90 0 -136 44t-46 114z" />
<glyph unicode="&#xfd;" d="M115 219v805h233q33 0 53.5 -22.5t20.5 -59.5v-727q0 -33 15.5 -47t68.5 -14h110v-154h-278q-223 0 -223 219zM135 -174q0 31 7.5 35t9.5 5t11 2t13 1h266v-109q0 -35 10.5 -48t53.5 -13h110v-154h-258q-223 0 -223 219v62zM449 1085v279q0 92 10 104.5t88 12.5h237 l-188 -396h-147zM678 -457v1481h125q90 0 136 -44t46 -114v-1165q0 -70 -46 -114t-136 -44h-125z" />
<glyph unicode="&#xfe;" horiz-adv-x="1103" d="M119 -299v1622q0 70 46 114t136 44h125v-1938h-125q-90 0 -136 44t-46 114zM487 0v154h111q53 0 68.5 14t15.5 45v596q0 33 -15.5 47t-68.5 14h-111v154h199q203 0 252 -70q20 -33 33.5 -63.5t19.5 -95.5q8 -119 8 -264.5t-2 -210t-13 -131t-29.5 -96.5t-55.5 -54.5 t-86 -31.5t-127 -7h-199z" />
<glyph unicode="&#xff;" d="M115 219v805h233q33 0 53.5 -22.5t20.5 -59.5v-727q0 -33 15.5 -47t68.5 -14h110v-154h-278q-223 0 -223 219zM135 -174q0 31 7.5 35t9.5 5t11 2t13 1h266v-109q0 -35 10.5 -48t53.5 -13h110v-154h-258q-223 0 -223 219v62zM145 1171v234q0 23 21 27h242q23 -4 22 -39v-7 v-186v-18.5v-18.5q-4 -14 -22 -14h-242q-20 2 -21 22zM633 1171v242q0 4 2 6t4 6q4 7 16 7h240q23 -4 23 -37v-9v-215q0 -12 -4.5 -16t-18.5 -6h-240q-14 2 -18 6t-4 16zM678 -457v1481h125q90 0 136 -44t46 -114v-1165q0 -70 -46 -114t-136 -44h-125z" />
<glyph unicode="&#x131;" horiz-adv-x="542" d="M119 82v940h125q90 0 136 -44t46 -114v-864h-233q-33 0 -53.5 22.5t-20.5 59.5z" />
<glyph unicode="&#x132;" horiz-adv-x="1148" d="M131 -168q0 39 14.5 51.5t55.5 12.5h217q29 0 35 -8.5t6 -34.5v-56q0 -33 9 -46t46 -13h98v-195h-178q-150 0 -226.5 48.5t-76.5 160.5v80zM145 117v1247q0 72 21.5 94.5t91.5 22.5h215v-1481h-215q-70 0 -91.5 22.5t-21.5 94.5zM674 -457v1938h215q70 0 91 -22.5 t21 -94.5v-1704q0 -72 -21.5 -94.5t-90.5 -22.5h-215z" />
<glyph unicode="&#x133;" horiz-adv-x="1085" d="M111 1335.5q0 102.5 22.5 124t131 21.5t131 -21.5t22.5 -124t-23.5 -125t-130 -22.5t-130 22.5t-23.5 125zM119 82v940h125q90 0 136 -44t46 -114v-864h-233q-33 0 -53.5 22.5t-20.5 59.5zM528 -315q0 14 17 14h51q49 0 57 18q8 27 9 60v1245h124q90 0 136.5 -44 t46.5 -114v-1091q0 -121 -54.5 -174.5t-169.5 -53.5h-204q-12 0 -13 15v125zM659 1335.5q0 102.5 23 124t131.5 21.5t131 -21.5t22.5 -124t-23.5 -125t-130 -22.5t-130.5 22.5t-24 125z" />
<glyph unicode="&#x13f;" horiz-adv-x="1161" d="M145 117v1247q0 72 21.5 94.5t91.5 22.5h215v-1481h-215q-70 0 -91.5 22.5t-21.5 94.5zM545 0v195h190q33 0 34 7t1 17v205q0 16 4 19t14 3h287q23 0 23 -28v-361q0 -57 -58 -57h-495zM770 612v271q2 18 7 22t22 4h202.5h71.5q10 -6 11 -9t3.5 -7t2.5 -10v-271 q0 -25 -29 -24h-205t-79 4t-7 20z" />
<glyph unicode="&#x140;" horiz-adv-x="870" d="M115 227v1252h125q90 0 136 -44t46 -114v-1090q0 -63 27 -71q14 -6 38 -6h52q16 0 16 -15v-125q0 -14 -10 -14h-207q-115 0 -169 53t-54 174zM557 726q0 99 23.5 119.5t128 20.5t126 -20.5t21.5 -119.5t-21.5 -120.5t-126 -21.5t-128 21.5t-23.5 120.5z" />
<glyph unicode="&#x141;" horiz-adv-x="1296" d="M45 205v262l186 215v-274zM297 117v1247q0 72 21.5 94.5t91.5 22.5h215v-1481h-215q-70 0 -91.5 22.5t-21.5 94.5zM668 723v262l186 201v-275zM696 0v195h191q33 0 34 7t1 17v205q0 16 4 19t14 3h287q23 0 22 -28v-361q0 -57 -57 -57h-496z" />
<glyph unicode="&#x142;" horiz-adv-x="847" d="M49 205v262l187 215v-274zM287 227v1254h125q90 0 136 -45t46 -115v-1090q0 -63 27 -71q14 -6 38 -6h52q16 0 16 -15v-125q0 -14 -10 -14h-207q-115 0 -169 53t-54 174zM651 723v262l187 201v-275z" />
<glyph unicode="&#x152;" horiz-adv-x="1878" d="M129 668.5q0 238.5 3 337t15.5 191.5t34 139t61.5 84t94 49.5t136 11.5h25v-1227q0 -31 15 -45t69 -14h151v-195h-260q-82 0 -136 12.5t-94 50t-61.5 85t-34.5 141.5q-18 141 -18 379.5zM580 1284v195h483q51 0 77.5 -24.5t26.5 -88.5q0 -1210 -16 -1292q-10 -63 -78 -74 q-23 -2 -51 -2h-207v1227q0 31 -15.5 45t-68.5 14h-151zM1247 0v287h551v-174q2 -68 -22.5 -90.5t-94.5 -22.5h-434zM1247 655v236h428v-123q0 -74 -14 -93.5t-82 -19.5h-332zM1247 1194v287h531v-174q0 -70 -22.5 -91.5t-94.5 -21.5h-414z" />
<glyph unicode="&#x153;" horiz-adv-x="1634" d="M104.5 446q-0.5 166 2 224.5t7.5 124t18 96.5t34.5 62.5t56.5 43.5q76 27 195 27h4v-772v-24.5t4 -34.5q8 -39 80 -39h110v-154h-198q-78 0 -127 7t-86 31.5t-55.5 54.5t-30.5 95q-14 92 -14.5 258zM483 870v154h199q78 0 127 -7t86 -31.5t55.5 -54.5t28.5 -95 q16 -92 16 -258t-2 -224.5t-7 -124t-18.5 -96.5t-35 -62.5t-55.5 -43.5q-76 -27 -195 -27h-4v772v24.5t-2 34.5q-10 39 -82 39h-111zM1036 440v154h111q49 0 66.5 12t17.5 47v156q0 35 -10.5 48t-53.5 13h-110v154h237q141 0 192.5 -55.5t51.5 -163.5v-180q0 -184 -201 -185 h-301zM1057 0v154h110q43 0 53.5 13t10.5 48v66q0 31 7 34.5t9 5t11.5 2.5t11.5 1h268v-105q0 -219 -223 -219h-258z" />
<glyph unicode="&#x160;" horiz-adv-x="1277" d="M115 229v185q-1 43 28 43h258q29 0 35 -8.5t6 -34.5v-160q0 -33 9.5 -46t46.5 -13h221v-195h-301q-150 0 -226.5 51t-76.5 178zM115 1074q0 122 9 185.5t43 119t104.5 78t187.5 22.5h24v-588q0 -33 15.5 -47.5t68.5 -14.5h152v-194h-260q-117 0 -187.5 24.5t-104.5 87 t-43 134t-9 193.5zM295 1823h227l125 -201l125 201h209l-139 -217q-43 -68 -59.5 -78t-69.5 -10h-131q-39 0 -59.5 12t-47.5 49zM565 1286v195h260q150 0 226.5 -51.5t76.5 -178.5v-184q0 -43 -28 -43h-258q-29 0 -35 8t-6 35v160q0 33 -9.5 46t-46.5 13h-180zM801 0v829h24 q88 0 136.5 -3t93.5 -18t62.5 -35.5t32.5 -71t17 -107.5t2 -163.5t-2 -169t-17 -119t-32.5 -79t-62.5 -40t-93.5 -20.5t-136.5 -3h-24z" />
<glyph unicode="&#x161;" horiz-adv-x="1038" d="M92 653v144q0 135 68.5 181t238.5 46v-375q0 -35 10.5 -48t53.5 -13h115v-154h-263q-223 0 -223 219zM96 219v62q0 31 7.5 34.5t9.5 5t11 2.5t11 1h268v-109q0 -35 10.5 -48t53.5 -13h111v-154h-259q-223 0 -223 219zM158 1399h250l137 -219l137 219h229l-153 -238 q-47 -74 -65 -85t-77 -11h-143q-43 0 -66.5 12.5t-52.5 52.5zM461 870v154h258q223 0 223 -219v-107h-208.5t-74 1t-7.5 2t-7 3.5t-4 5.5t-2 7q-4 16 -4 24v68q0 35 -10.5 48t-53.5 13h-110zM639 0v588h84q223 0 223 -219v-142q0 -135 -68.5 -181t-238.5 -46z" />
<glyph unicode="&#x174;" horiz-adv-x="1970" d="M143 229v1135q0 72 21.5 94.5t91.5 22.5h215v-1227q0 -33 9 -46t46 -13h222v-195h-302q-150 0 -226.5 51t-76.5 178zM596 1188l156 289q29 55 39 59q11 6 36 6h222q20 0 30.5 -2t18.5 -3t15 -10t10 -15.5t13.5 -28t18.5 -37.5l131 -258h-227l-117 246l-117 -246h-229z M809 82v942h213q61 0 88 -34t27 -109v-627q0 -33 9 -46t46 -13h221v-195h-530q-33 0 -53.5 22.5t-20.5 59.5zM1495 0v1481h215q70 0 92.5 -22.5t22.5 -94.5v-1282q0 -37 -21.5 -59.5t-54.5 -22.5h-254z" />
<glyph unicode="&#x175;" horiz-adv-x="1654" d="M115 219v805h233q33 0 53.5 -22.5t20.5 -59.5v-727q0 -33 15.5 -47t68.5 -14h110v-154h-278q-223 0 -223 219zM455 1106l155 289q29 55 39 59q12 6 37 6h221q20 0 30.5 -2t19 -3t15.5 -10t10 -15.5t13.5 -28t18.5 -37.5l131 -258h-227l-117 246l-117 -246h-229zM670 219 v805h233q33 0 53.5 -22.5t20.5 -59.5v-727q0 -33 15.5 -47t68.5 -14h110v-154h-278q-223 0 -223 219zM1233 0v1024h233q33 0 53.5 -22.5t20.5 -59.5v-784q0 -70 -46 -114t-136 -44h-125z" />
<glyph unicode="&#x176;" horiz-adv-x="1150" d="M90 791v593q0 96 113 97h215v-584q0 -33 10 -46t47 -13h74v-195h-320q-78 0 -108.5 36t-30.5 112zM227 1563l156 288q29 55 39 60q12 6 37 6h221q20 0 30.5 -2t18.5 -3t15.5 -10.5t10.5 -15.5t13 -27.5t18 -37.5l132 -258h-228l-117 245l-116 -245h-230zM383 117v327 q0 72 21.5 94.5t91.5 22.5h256v-561h-256q-70 0 -91.5 22.5t-21.5 94.5zM631 643v195h49q37 0 46 14t9 45v584h215q61 0 87 -24.5t26 -92.5v-578q0 -143 -119 -143h-313z" />
<glyph unicode="&#x177;" d="M115 219v805h233q33 0 53.5 -22.5t20.5 -59.5v-727q0 -33 15.5 -47t68.5 -14h110v-154h-278q-223 0 -223 219zM135 -174q0 31 7.5 35t9.5 5t11 2t13 1h266v-109q0 -35 10.5 -48t53.5 -13h110v-154h-258q-223 0 -223 219v62zM184 1106l156 289q29 55 39 59q12 6 37 6h221 q20 0 30.5 -2t18.5 -3t15.5 -10t10.5 -15.5t13 -28t18 -37.5l131 -258h-227l-117 246l-116 -246h-230zM678 -457v1481h125q90 0 136 -44t46 -114v-1165q0 -70 -46 -114t-136 -44h-125z" />
<glyph unicode="&#x178;" horiz-adv-x="1150" d="M90 791v593q0 96 113 97h215v-584q0 -33 10 -46t47 -13h74v-195h-320q-78 0 -108.5 36t-30.5 112zM188 1628v234q0 23 21 26h242q23 -4 22 -39v-6v-186v-18.5t-2 -18.5q-2 -14 -20 -14h-242q-20 2 -21 22zM383 117v327q0 72 21.5 94.5t91.5 22.5h256v-561h-256 q-70 0 -91.5 22.5t-21.5 94.5zM631 643v195h49q37 0 46 14t9 45v584h215q61 0 87 -24.5t26 -92.5v-578q0 -143 -119 -143h-313zM676 1628v242q0 4 2 6l4 4q4 8 16 8h240q23 -4 23 -37v-8v-215q0 -12 -4.5 -16t-18.5 -6h-240q-14 2 -18 6t-4 16z" />
<glyph unicode="&#x17d;" horiz-adv-x="1316" d="M129 1085v258q0 106 43 127q23 10 57 11h504v-195h-172q-43 0 -53 -13t-10 -48v-140h-369zM131 76v614q0 76 31 112t108 36h361v-195h-74q-37 0 -47 -13.5t-10 -45.5v-584h-277q-53 0 -72.5 17.5t-19.5 58.5zM311 1823h228l125 -201l124 201h209l-139 -217 q-43 -68 -59.5 -78t-69.5 -10h-131q-39 0 -59.5 12t-46.5 49zM586 0v195h170q43 0 53 13t10 48v139h369v-280q0 -96 -41 -109q-20 -6 -60 -6h-501zM713 643v195h49q37 0 46 13t9 46v584h277q59 0 75.5 -22.5t16.5 -94.5v-623q0 -51 -14.5 -74.5t-63.5 -23.5h-395z" />
<glyph unicode="&#x17e;" horiz-adv-x="1060" d="M104 125v321q0 63 25 100.5t96 37.5h187v-584h-183q-125 0 -125 125zM109 698v213q0 113 112 113h369v-154h-111q-43 0 -53 -13t-10 -48v-111h-307zM154 1399h249l138 -219l137 219h229l-153 -238q-47 -74 -65 -85t-77 -11h-143q-43 0 -66.5 12.5t-52.5 52.5zM473 0v154 h111q43 0 53 13t10 48v111h307v-213q0 -113 -112 -113h-369zM473 430v154h111q43 0 53 13t10 46v342q0 31 10.5 35t24.5 4h199q74 0 73 -84v-289q0 -156 -32 -184q-47 -37 -129 -37h-320z" />
<glyph unicode="&#x2000;" horiz-adv-x="1006" />
<glyph unicode="&#x2001;" horiz-adv-x="2013" />
<glyph unicode="&#x2002;" horiz-adv-x="1006" />
<glyph unicode="&#x2003;" horiz-adv-x="2013" />
<glyph unicode="&#x2004;" horiz-adv-x="671" />
<glyph unicode="&#x2005;" horiz-adv-x="503" />
<glyph unicode="&#x2006;" horiz-adv-x="335" />
<glyph unicode="&#x2007;" horiz-adv-x="335" />
<glyph unicode="&#x2008;" horiz-adv-x="251" />
<glyph unicode="&#x2009;" horiz-adv-x="402" />
<glyph unicode="&#x200a;" horiz-adv-x="111" />
<glyph unicode="&#x2010;" horiz-adv-x="1001" d="M119 518v225h764v-225h-764z" />
<glyph unicode="&#x2011;" horiz-adv-x="1001" d="M119 518v225h764v-225h-764z" />
<glyph unicode="&#x2012;" horiz-adv-x="1001" d="M119 518v225h764v-225h-764z" />
<glyph unicode="&#x2013;" horiz-adv-x="1261" d="M119 518v225h1024v-225h-1024z" />
<glyph unicode="&#x2014;" horiz-adv-x="2285" d="M119 518v225h2048v-225h-2048z" />
<glyph unicode="&#x202f;" horiz-adv-x="402" />
<glyph unicode="&#x205f;" horiz-adv-x="503" />
<glyph unicode="&#xe000;" horiz-adv-x="1025" d="M0 0v1025h1025v-1025h-1025z" />
</font>
</defs>
</svg>
